找回密码

蓝光电影网

查看: 162|回复: 0

[喜剧] 坏比利 Bank.Robber.1993.1080p.AMZN.WEBRip.DDP2.0.x264-SNAKE 3.17GB

[复制链接]
蓝光币
733
发表于 2021-10-26 17:09:49 | 显示全部楼层 |阅读模式


◎译  名 坏比利/Ladrón de bancos/Romanttinen ry?st?j?
◎片  名 Bank Robber
◎年  代 1993
◎产  地 美国
◎类  别 笑剧 / 恋爱 / 犯罪
◎语  言 英语
◎上映日期 1993-12-03
◎豆瓣评分 /10 from 0 users
◎豆瓣链接 https://movie.douban.com/subject/3636457/
◎片  长 91 分钟
◎主  演 Scott Kaske Scott Kaske
       保拉·凯利 Paula Kelly
       大卫米伯尔尼 David Millbern
       Stephen McDonough Stephen McDonough
       比尔·朱克特 Bill Zuckert
       Elena Del Rubio Elena Del Rubio
       Milly Del Rubio Milly Del Rubio
       奥利薇亚·阿波 Olivia d'Abo
       帕特里克·德姆西 Patrick Dempsey
       祖德·莱茵霍尔德 Judge Reinhold
       莉莎·博内特 Lisa Bonet
       Miles A. Copeland III Miles A. Copeland III
       迈克尔·杰特 Michael Jeter
       福里斯特·惠特克 Forest Whitaker
       玛莉丝卡·哈吉塔 Mariska Hargitay
       乔·阿拉斯奇 Joe Alaskey
       Eadie Del Rubio Eadie Del Rubio
       马克·佩雷格里诺 Mark Pellegrino
◎标  签 英国 | 存档无字
◎简  介


  暂无相关剧情先容
  1. Video
  2. ID                                       : 1
  3. Format                                   : AVC
  4. Format/Info                              : Advanced Video Codec
  5. Format profile                           : [email protected]
  6. Format settings                          : CABAC / 4 Ref Frames
  7. Format settings, CABAC                   : Yes
  8. Format settings, Reference frames        : 4 frames
  9. Codec ID                                 : V_MPEG4/ISO/AVC
  10. Duration                                 : 1 h 33 min
  11. Bit rate                                 : 4 649 kb/s
  12. Width                                    : 1 920 pixels
  13. Height                                   : 1 080 pixels
  14. Display aspect ratio                     : 16:9
  15. Frame rate mode                          : Constant
  16. Frame rate                               : 24.000 FPS
  17. Color space                              : YUV
  18. Chroma subsampling                       : 4:2:0
  19. Bit depth                                : 8 bits
  20. Scan type                                : Progressive
  21. Bits/(Pixel*Frame)                       : 0.093
  22. Stream size                              : 3.02 GiB (95%)
  23. Default                                  : Yes
  24. Forced                                   : No
  25. Color range                              : Limited
  26. Color primaries                          : BT.709
  27. Transfer characteristics                 : BT.709
  28. Matrix coefficients                      : BT.709
  29. Audio
  30. ID                                       : 2
  31. Format                                   : E-AC-3
  32. Format/Info                              : Enhanced AC-3
  33. Commercial name                          : Dolby Digital Plus
  34. Codec ID                                 : A_EAC3
  35. Duration                                 : 1 h 33 min
  36. Bit rate mode                            : Constant
  37. Bit rate                                 : 224 kb/s
  38. Channel(s)                               : 2 channels
  39. Channel layout                           : L R
  40. Sampling rate                            : 48.0 kHz
  41. Frame rate                               : 31.250 FPS (1536 SPF)
  42. Compression mode                         : Lossy
  43. Stream size                              : 149 MiB (5%)
  44. Language                                 : English
  45. Service kind                             : Complete Main
  46. Default                                  : Yes
  47. Forced                                   : No
  48. Text
  49. ID                                       : 3
  50. Format                                   : UTF-8
  51. Codec ID                                 : S_TEXT/UTF8
  52. Codec ID/Info                            : UTF-8 Plain Text
  53. Duration                                 : 1 h 32 min
  54. Bit rate                                 : 59 b/s
  55. Count of elements                        : 1581
  56. Stream size                              : 40.8 KiB (0%)
  57. Language                                 : English
  58. Default                                  : Yes
  59. Forced                                   : No
复制代码







                                       
                                       

                                       
                                       
                                       




回复

使用道具 举报

懒得打字嘛,点击右侧快捷回复 【右侧内容,后台自定义】
您需要登录后才可以回帖 登录 | 立即加入

本版积分规则

Archiver|小黑屋| 蓝光电影网 |网站地图

Copyright © 2021 Comsenz Inc. Powered by 蓝光电影网

蓝光电影网

本站内容由用户自主分享和转载自互联网,转载目的在于传递更多信息,并不代表本网赞同其观点和对其真实性负责。

如有侵权、违反国家法律政策行为,请联系我们,我们会第一时间及时清除和处理!

举报反馈邮箱:[email protected]

快速回复 返回顶部 返回列表