找回密码

蓝光电影网

查看: 424|回复: 2

[10bit.SDR] 过关斩将/威龙猛将 The.Running.Man.1987.2160p.BluRay.x265.10bit.SDR.DTS-HD.MA.7.1-SWTYBLZ 49.12GB

[复制链接]
蓝光币
682
发表于 2021-10-26 19:52:46 | 显示全部楼层 |阅读模式


◎译  名 过关斩将/威龙猛将/跑步者/逃窜的人/魔鬼阿诺
◎片  名 The Running Man
◎年  代 1987
◎产  地 美国
◎类  别 行动 / 科幻 / 惊悚
◎语  言 英语
◎上映日期 1987-11-13
◎豆瓣评分 6.8/10 from 4980 users
◎豆瓣链接 https://movie.douban.com/subject/1292626/
◎片  长 101 分钟
◎导  演 保罗·迈克尔·格拉泽 Paul Michael Glaser
◎编  剧 斯蒂芬·金 Stephen King / 斯蒂芬·E.德·索萨 Steven E. de Souza
◎主  演 阿诺·施瓦辛格 Arnold Schwarzenegger
       玛利亚·康柯塔·阿隆索 Maria Conchita Alonso
       杰西·温图拉 Jesse Ventura
       Anthony Pena Anthony Pena
       爱德华·邦克 Edward Bunker
       史文-欧尔·托尔森 Sven-Ole Thorsen
       戴·扬 Dey Young
       罗德格尔·邦帕斯 Rodger Bumpass
       琳恩·玛丽·斯图尔特 Lynne Marie Stewart
       小托马斯·罗萨莱斯 Thomas Rosales Jr.
       罗杰·科恩 Roger Kern
       弗兰科·哥伦布 Franco Columbu
       博伊德·肯斯特纳 Boyd Kestner
       梅利莎·赫利 Melissa Hurley
       卡德罗莎·奥娜·卡罗尔
       理查德·道森 Richard Dawson
       米克·弗利特伍德 Mick Fleetwood
       Billy D. Lucas Billy D. Lucas
       林·沙烨 Lin Shaye
       乔治·P·威尔伯 George P. Wilbur
       柯特·富勒 Kurt Fuller
       吉姆·布朗 Jim Brown
       Dweezil Zappa Dweezil Zappa
       亚非特·科托 Yaphet Kotto
       Erland van Lidth Erland van Lidth
       田中通教授 Professor Toru Tanaka
       Karen Leigh Hopkins Karen Leigh Hopkins
◎标  签 行动 | 科幻 | 美国 | 施瓦辛格 | 暴力 | 1987 | 阿诺德·施瓦辛格 | 美国电影
◎简  介


  该片延续了施瓦辛格一向的豪杰气概。在2019年,美国已经成为了一个独裁国家,在这里,不允许有分歧的声音出现。本(阿诺?施瓦辛格 Arnold Schwarzenegger 饰)是一位差人,因对政府的号令不满,拒不履行号令而被判有罪遭到拘系。
  
  现在只要一个机遇能让本重获自在,那就是加入电视台的“过关斩将”节目并终极得胜。这个节目肆意曲解究竟,误导观众,节目里的有识之士被扭曲形象,遭到杀戮。本含辛茹苦从电视台逃出来后,结合了一班正义之士,预备杀回电视台拆穿这个节目标圈套!
  1. Video
  2. ID                                       : 1
  3. Format                                   : HEVC
  4. Format/Info                              : High Efficiency Video Coding
  5. Format profile                           : Main [email protected]@High
  6. Codec ID                                 : V_MPEGH/ISO/HEVC
  7. Duration                                 : 1 h 40 min
  8. Bit rate                                 : 63.5 Mb/s
  9. Width                                    : 3 840 pixels
  10. Height                                   : 2 160 pixels
  11. Display aspect ratio                     : 16:9
  12. Frame rate mode                          : Constant
  13. Frame rate                               : 23.976 (24000/1001/189150) FPS
  14. Color space                              : YUV
  15. Chroma subsampling                       : 4:2:0
  16. Bit depth                                : 10 bits
  17. Bits/(Pixel*Frame)                       : 0.319
  18. Stream size                              : 44.7 GiB (92%)
  19. Writing library                          : x265 3.0ed72af837053:[Windows][GCC 8.2.0][64 bit] 10bit
  20. Encoding settings                        : cpuid=1111039 / frame-threads=6 / numa-pools=40 / wpp / no-pmode / no-pme / no-psnr / no-ssim / log-level=2 / input-csp=1 / input-res=3840x2160 / interlace=0 / total-frames=145008 / level-idc=51 / high-tier=1 / uhd-bd=0 / ref=3 / no-allow-non-conformance / repeat-headers / annexb / aud / hrd / info / hash=0 / no-temporal-layers / no-open-gop / min-keyint=1 / keyint=24 / gop-lookahead=0 / bframes=4 / b-adapt=2 / b-pyramid / bframe-bias=0 / rc-lookahead=25 / lookahead-slices=4 / scenecut=40 / radl=0 / no-splice / no-intra-refresh / ctu=64 / min-cu-size=8 / no-rect / no-amp / max-tu-size=32 / tu-inter-depth=1 / tu-intra-depth=1 / limit-tu=0 / rdoq-level=0 / dynamic-rd=0.00 / no-ssim-rd / signhide / no-tskip / nr-intra=0 / nr-inter=0 / no-constrained-intra / strong-intra-smoothing / max-merge=2 / limit-refs=3 / no-limit-modes / me=1 / subme=2 / merange=57 / temporal-mvp / weightp / no-weightb / no-analyze-src-pics / deblock=0:0 / no-sao / no-sao-non-deblock / rd=3 / no-early-skip / rskip / no-fast-intra / no-tskip-fast / no-cu-lossless / no-b-intra / no-splitrd-skip / rdpenalty=0 / psy-rd=2.00 / psy-rdoq=0.00 / no-rd-refine / no-lossless / cbqpoffs=0 / crqpoffs=0 / rc=crf / crf=18.0 / qcomp=0.60 / qpstep=4 / stats-write=0 / stats-read=0 / vbv-maxrate=160000 / vbv-bufsize=160000 / vbv-init=0.9 / crf-max=0.0 / crf-min=0.0 / ipratio=1.40 / pbratio=1.30 / aq-mode=1 / aq-strength=1.00 / cutree / zone-count=0 / no-strict-cbr / qg-size=32 / no-rc-grain / qpmax=69 / qpmin=0 / no-const-vbv / sar=1 / overscan=0 / videoformat=5 / range=0 / colorprim=2 / transfer=2 / colormatrix=2 / chromaloc=0 / display-window=0 / max-cll=0,0 / min-luma=0 / max-luma=1023 / log2-max-poc-lsb=8 / vui-timing-info / vui-hrd-info / slices=1 / opt-qp-pps / opt-ref-list-length-pps / no-multi-pass-opt-rps / scenecut-bias=0.05 / no-opt-cu-delta-qp / no-aq-motion / no-hdr / no-hdr-opt / no-dhdr10-opt / no-idr-recovery-sei / analysis-reuse-level=5 / scale-factor=0 / refine-intra=0 / refine-inter=0 / refine-mv=0 / refine-ctu-distortion=0 / no-limit-sao / ctu-info=0 / no-lowpass-dct / refine-analysis-type=0 / copy-pic=1 / max-ausize-factor=1.0 / no-dynamic-refine / no-single-sei / no-hevc-aq / qp-adaptation-range=1.00
  21. Default                                  : Yes
  22. Forced                                   : No

  23. Audio #1
  24. ID                                       : 2
  25. ID in the original source medium         : 4355 (0x1103)
  26. Format                                   : DTS ES XLL
  27. Format/Info                              : Digital Theater Systems
  28. Commercial name                          : DTS-HD Master Audio
  29. Codec ID                                 : A_DTS
  30. Duration                                 : 1 h 40 min
  31. Bit rate mode                            : Variable
  32. Bit rate                                 : 5 148 kb/s
  33. Channel(s)                               : 8 channels
  34. Channel layout                           : C L R Ls Rs LFE Lb Rb
  35. Sampling rate                            : 48.0 kHz
  36. Frame rate                               : 93.750 FPS (512 SPF)
  37. Bit depth                                : 24 bits
  38. Compression mode                         : Lossless
  39. Stream size                              : 3.63 GiB (7%)
  40. Title                                    : DTS-HD MA 7.1
  41. Language                                 : English
  42. Default                                  : Yes
  43. Forced                                   : No
  44. Original source medium                   : Blu-ray

  45. Audio #2
  46. ID                                       : 3
  47. Format                                   : AC-3
  48. Format/Info                              : Audio Coding 3
  49. Commercial name                          : Dolby Digital
  50. Codec ID                                 : A_AC3
  51. Duration                                 : 1 h 40 min
  52. Bit rate mode                            : Constant
  53. Bit rate                                 : 640 kb/s
  54. Channel(s)                               : 6 channels
  55. Channel layout                           : L R C LFE Ls Rs
  56. Sampling rate                            : 48.0 kHz
  57. Frame rate                               : 31.250 FPS (1536 SPF)
  58. Compression mode                         : Lossy
  59. Stream size                              : 462 MiB (1%)
  60. Title                                    : DD 5.1
  61. Language                                 : English
  62. Service kind                             : Complete Main
  63. Default                                  : No
  64. Forced                                   : No

  65. Text #1
  66. ID                                       : 4
  67. Format                                   : UTF-8
  68. Codec ID                                 : S_TEXT/UTF8
  69. Codec ID/Info                            : UTF-8 Plain Text
  70. Duration                                 : 1 h 38 min
  71. Bit rate                                 : 54 b/s
  72. Count of elements                        : 1138
  73. Stream size                              : 39.3 KiB (0%)
  74. Title                                    : SRT
  75. Language                                 : English
  76. Default                                  : Yes
  77. Forced                                   : No

  78. Text #2
  79. ID                                       : 5
  80. ID in the original source medium         : 4769 (0x12A1)
  81. Format                                   : PGS
  82. Muxing mode                              : zlib
  83. Codec ID                                 : S_HDMV/PGS
  84. Codec ID/Info                            : Picture based subtitle format used on BDs/HD-DVDs
  85. Duration                                 : 1 h 38 min
  86. Bit rate                                 : 33.3 kb/s
  87. Count of elements                        : 2292
  88. Stream size                              : 23.4 MiB (0%)
  89. Language                                 : English
  90. Default                                  : No
  91. Forced                                   : No
  92. Original source medium                   : Blu-ray

  93. Text #3
  94. ID                                       : 6
  95. ID in the original source medium         : 4770 (0x12A2)
  96. Format                                   : PGS
  97. Muxing mode                              : zlib
  98. Codec ID                                 : S_HDMV/PGS
  99. Codec ID/Info                            : Picture based subtitle format used on BDs/HD-DVDs
  100. Duration                                 : 1 h 40 min
  101. Bit rate                                 : 43.6 kb/s
  102. Count of elements                        : 1928
  103. Stream size                              : 31.2 MiB (0%)
  104. Language                                 : German
  105. Default                                  : No
  106. Forced                                   : No
  107. Original source medium                   : Blu-ray

  108. Text #4
  109. ID                                       : 7
  110. ID in the original source medium         : 4771 (0x12A3)
  111. Format                                   : PGS
  112. Muxing mode                              : zlib
  113. Codec ID                                 : S_HDMV/PGS
  114. Codec ID/Info                            : Picture based subtitle format used on BDs/HD-DVDs
  115. Duration                                 : 1 h 40 min
  116. Bit rate                                 : 49.2 kb/s
  117. Count of elements                        : 1936
  118. Stream size                              : 35.3 MiB (0%)
  119. Language                                 : German
  120. Default                                  : No
  121. Forced                                   : No
  122. Original source medium                   : Blu-ray

  123. Menu
  124. 00:00:00.000                             : en:Chapter 01
  125. 00:03:22.202                             : en:Chapter 02
  126. 00:13:41.028                             : en:Chapter 03
  127. 00:21:57.774                             : en:Chapter 04
  128. 00:29:00.739                             : en:Chapter 05
  129. 00:34:46.084                             : en:Chapter 06
  130. 00:40:24.797                             : en:Chapter 07
  131. 00:45:14.962                             : en:Chapter 08
  132. 00:50:00.914                             : en:Chapter 09
  133. 00:55:49.262                             : en:Chapter 10
  134. 01:02:37.378                             : en:Chapter 11
  135. 01:09:11.772                             : en:Chapter 12
  136. 01:16:41.096                             : en:Chapter 13
  137. 01:23:29.921                             : en:Chapter 14
  138. 01:29:39.957                             : en:Chapter 15
  139. 01:33:25.391                             : en:Chapter 16
  140. 01:40:42.828                             : en:Chapter 17
复制代码






                                       
                                       

                                       
                                       
                                       




回复

使用道具 举报

蓝光币
63
发表于 2021-10-27 09:29:03 | 显示全部楼层
楼主发贴辛苦了,谢谢楼主分享!我觉得蓝光电影网是注册对了!
回复 支持 反对

使用道具 举报

蓝光币
169
发表于 2021-10-27 16:19:53 | 显示全部楼层
楼主发贴辛苦了,谢谢楼主分享!我觉得蓝光电影网是注册对了!
回复 支持 反对

使用道具 举报

懒得打字嘛,点击右侧快捷回复 【右侧内容,后台自定义】
您需要登录后才可以回帖 登录 | 立即加入

本版积分规则

Archiver|小黑屋| 蓝光电影网 |网站地图

Copyright © 2021 Comsenz Inc. Powered by 蓝光电影网

蓝光电影网

本站内容由用户自主分享和转载自互联网,转载目的在于传递更多信息,并不代表本网赞同其观点和对其真实性负责。

如有侵权、违反国家法律政策行为,请联系我们,我们会第一时间及时清除和处理!

举报反馈邮箱:[email protected]

快速回复 返回顶部 返回列表