找回密码

蓝光电影网

查看: 296|回复: 0

[10bit.HDR] 过关斩将/威龙猛将 The.Running.Man.1987.2160p.UHD.BluRay.x265.10bit.HDR.DTS-HD.MA.7.1-SWTYBLZ 38.12GB

[复制链接]
蓝光币
733
发表于 2021-10-26 19:51:33 | 显示全部楼层 |阅读模式


◎译  名 过关斩将/威龙猛将/跑步者/逃窜的人/魔鬼阿诺
◎片  名 The Running Man
◎年  代 1987
◎产  地 美国
◎类  别 行动 / 科幻 / 惊悚
◎语  言 英语
◎上映日期 1987-11-13
◎豆瓣评分 6.8/10 from 4980 users
◎豆瓣链接 https://movie.douban.com/subject/1292626/
◎片  长 101 分钟
◎导  演 保罗·迈克尔·格拉泽 Paul Michael Glaser
◎编  剧 斯蒂芬·金 Stephen King / 斯蒂芬·E.德·索萨 Steven E. de Souza
◎主  演 阿诺·施瓦辛格 Arnold Schwarzenegger
       玛利亚·康柯塔·阿隆索 Maria Conchita Alonso
       杰西·温图拉 Jesse Ventura
       Anthony Pena Anthony Pena
       爱德华·邦克 Edward Bunker
       史文-欧尔·托尔森 Sven-Ole Thorsen
       戴·扬 Dey Young
       罗德格尔·邦帕斯 Rodger Bumpass
       琳恩·玛丽·斯图尔特 Lynne Marie Stewart
       小托马斯·罗萨莱斯 Thomas Rosales Jr.
       罗杰·科恩 Roger Kern
       弗兰科·哥伦布 Franco Columbu
       博伊德·肯斯特纳 Boyd Kestner
       梅利莎·赫利 Melissa Hurley
       卡德罗莎·奥娜·卡罗尔
       理查德·道森 Richard Dawson
       米克·弗利特伍德 Mick Fleetwood
       Billy D. Lucas Billy D. Lucas
       林·沙烨 Lin Shaye
       乔治·P·威尔伯 George P. Wilbur
       柯特·富勒 Kurt Fuller
       吉姆·布朗 Jim Brown
       Dweezil Zappa Dweezil Zappa
       亚非特·科托 Yaphet Kotto
       Erland van Lidth Erland van Lidth
       田中通教授 Professor Toru Tanaka
       Karen Leigh Hopkins Karen Leigh Hopkins
◎标  签 行动 | 科幻 | 美国 | 施瓦辛格 | 暴力 | 1987 | 阿诺德·施瓦辛格 | 美国电影
◎简  介


  该片延续了施瓦辛格一向的豪杰气概。在2019年,美国已经成为了一个独裁国家,在这里,不允许有分歧的声音出现。本(阿诺?施瓦辛格 Arnold Schwarzenegger 饰)是一位差人,因对政府的号令不满,拒不履行号令而被判有罪遭到拘系。
  
  现在只要一个机遇能让本重获自在,那就是加入电视台的“过关斩将”节目并终极得胜。这个节目肆意曲解究竟,误导观众,节目里的有识之士被扭曲形象,遭到杀戮。本含辛茹苦从电视台逃出来后,结合了一班正义之士,预备杀回电视台拆穿这个节目标圈套!

  1. Video
  2. ID : 1
  3. Format : HEVC
  4. Format/Info : High Efficiency Video Coding
  5. Format profile : Main [email protected]@High
  6. HDR format : SMPTE ST 2086, HDR10 compatible
  7. Codec ID : V_MPEGH/ISO/HEVC
  8. Duration : 1 h 40 min
  9. Bit rate : 48.0 Mb/s
  10. Width : 3 840 pixels
  11. Height : 2 160 pixels
  12. Display aspect ratio : 16:9
  13. Frame rate mode : Constant
  14. Frame rate : 23.976 (24000/1001) FPS
  15. Color space : YUV
  16. Chroma subsampling : 4:2:0 (Type 2)
  17. Bit depth : 10 bits
  18. Bits/(Pixel*Frame) : 0.241
  19. Stream size : 33.8 GiB (89%)
  20. Writing library : x265 3.0_Au+10-74a8672ea4f7:[Windows][GCC 8.2.1][64 bit] 10bit
  21. Encoding settings : cpuid=1111039 / frame-threads=6 / numa-pools=24,24,24,24 / wpp / no-pmode / no-pme / no-psnr / no-ssim / log-level=2 / input-csp=1 / input-res=3840x2160 / interlace=0 / total-frames=0 / level-idc=51 / high-tier=1 / uhd-bd=0 / ref=3 / no-allow-non-conformance / repeat-headers / annexb / aud / hrd / info / hash=0 / no-temporal-layers / no-open-gop / min-keyint=1 / keyint=24 / gop-lookahead=0 / bframes=4 / b-adapt=2 / b-pyramid / bframe-bias=0 / rc-lookahead=25 / lookahead-slices=4 / scenecut=40 / radl=0 / no-splice / no-intra-refresh / ctu=64 / min-cu-size=8 / no-rect / no-amp / max-tu-size=32 / tu-inter-depth=1 / tu-intra-depth=1 / limit-tu=0 / rdoq-level=0 / dynamic-rd=0.00 / no-ssim-rd / signhide / no-tskip / nr-intra=0 / nr-inter=0 / no-constrained-intra / strong-intra-smoothing / max-merge=2 / limit-refs=3 / no-limit-modes / me=1 / subme=2 / merange=57 / temporal-mvp / weightp / no-weightb / no-analyze-src-pics / deblock=0:0 / no-sao / no-sao-non-deblock / rd=3 / no-early-skip / rskip / no-fast-intra / no-tskip-fast / no-cu-lossless / no-b-intra / no-splitrd-skip / rdpenalty=0 / psy-rd=2.00 / psy-rdoq=0.00 / no-rd-refine / no-lossless / cbqpoffs=0 / crqpoffs=0 / rc=crf / crf=16.0 / qcomp=0.60 / qpstep=4 / stats-write=0 / stats-read=0 / vbv-maxrate=160000 / vbv-bufsize=160000 / vbv-init=0.9 / crf-max=0.0 / crf-min=0.0 / ipratio=1.40 / pbratio=1.30 / aq-mode=1 / aq-strength=1.00 / cutree / zone-count=0 / no-strict-cbr / qg-size=32 / no-rc-grain / qpmax=69 / qpmin=0 / no-const-vbv / sar=1 / overscan=0 / videoformat=5 / range=0 / colorprim=9 / transfer=16 / colormatrix=9 / chromaloc=1 / chromaloc-top=2 / chromaloc-bottom=2 / display-window=0 / master-display=G(13250,34500)B(7500,3000)R(34000,16000)WP(15635,16450)L(40000000,50) / max-cll=3966,523 / min-luma=0 / max-luma=1023 / log2-max-poc-lsb=8 / vui-timing-info / vui-hrd-info / slices=1 / opt-qp-pps / opt-ref-list-length-pps / no-multi-pass-opt-rps / scenecut-bias=0.05 / no-opt-cu-delta-qp / no-aq-motion / hdr / hdr-opt / no-dhdr10-opt / no-idr-recovery-sei / analysis-reuse-level=5 / scale-factor=0 / refine-intra=0 / refine-inter=0 / refine-mv=0 / refine-ctu-distortion=0 / no-limit-sao / ctu-info=0 / no-lowpass-dct / refine-analysis-type=0 / copy-pic=1 / max-ausize-factor=1.0 / no-dynamic-refine / no-single-sei / no-hevc-aq / no-svt / qp-adaptation-range=1.00
  22. Default : Yes
  23. Forced : No
  24. Color range : Limited
  25. Color primaries : BT.2020
  26. Transfer characteristics : PQ
  27. Matrix coefficients : BT.2020 non-constant
  28. Mastering display color primaries : Display P3
  29. Mastering display luminance : min: 0.0050 cd/m2, max: 4000 cd/m2
  30. Maximum Content Light Level : 3966 cd/m2
  31. Maximum Frame-Average Light Level : 523 cd/m2

  32. Audio #1
  33. ID : 2
  34. ID in the original source medium : 4355 (0x1103)
  35. Format : DTS ES XLL
  36. Format/Info : Digital Theater Systems
  37. Commercial name : DTS-HD Master Audio
  38. Codec ID : A_DTS
  39. Duration : 1 h 40 min
  40. Bit rate mode : Variable
  41. Bit rate : 5 148 kb/s
  42. Channel(s) : 8 channels
  43. Channel layout : C L R Ls Rs LFE Lb Rb
  44. Sampling rate : 48.0 kHz
  45. Frame rate : 93.750 FPS (512 SPF)
  46. Bit depth : 24 bits
  47. Compression mode : Lossless
  48. Stream size : 3.63 GiB (10%)
  49. Title : DTS-HD MA 7.1
  50. Language : English
  51. Default : Yes
  52. Forced : No
  53. Original source medium : Blu-ray

  54. Audio #2
  55. ID : 3
  56. Format : AC-3
  57. Format/Info : Audio Coding 3
  58. Commercial name : Dolby Digital
  59. Codec ID : A_AC3
  60. Duration : 1 h 40 min
  61. Bit rate mode : Constant
  62. Bit rate : 640 kb/s
  63. Channel(s) : 6 channels
  64. Channel layout : L R C LFE Ls Rs
  65. Sampling rate : 48.0 kHz
  66. Frame rate : 31.250 FPS (1536 SPF)
  67. Compression mode : Lossy
  68. Stream size : 462 MiB (1%)
  69. Title : DD 5.1
  70. Language : English
  71. Service kind : Complete Main
  72. Default : No
  73. Forced : No

  74. Text #1
  75. ID : 4
  76. Format : UTF-8
  77. Codec ID : S_TEXT/UTF8
  78. Codec ID/Info : UTF-8 Plain Text
  79. Duration : 1 h 38 min
  80. Bit rate : 54 b/s
  81. Count of elements : 1138
  82. Stream size : 39.3 KiB (0%)
  83. Title : SRT
  84. Language : English
  85. Default : No
  86. Forced : No

  87. Text #2
  88. ID : 5
  89. ID in the original source medium : 4769 (0x12A1)
  90. Format : PGS
  91. Muxing mode : zlib
  92. Codec ID : S_HDMV/PGS
  93. Codec ID/Info : Picture based subtitle format used on BDs/HD-DVDs
  94. Duration : 1 h 38 min
  95. Bit rate : 33.3 kb/s
  96. Count of elements : 2292
  97. Stream size : 23.4 MiB (0%)
  98. Language : English
  99. Default : No
  100. Forced : No
  101. Original source medium : Blu-ray

  102. Text #3
  103. ID : 6
  104. ID in the original source medium : 4770 (0x12A2)
  105. Format : PGS
  106. Muxing mode : zlib
  107. Codec ID : S_HDMV/PGS
  108. Codec ID/Info : Picture based subtitle format used on BDs/HD-DVDs
  109. Duration : 1 h 40 min
  110. Bit rate : 43.6 kb/s
  111. Count of elements : 1928
  112. Stream size : 31.2 MiB (0%)
  113. Language : German
  114. Default : No
  115. Forced : No
  116. Original source medium : Blu-ray

  117. Text #4
  118. ID : 7
  119. ID in the original source medium : 4771 (0x12A3)
  120. Format : PGS
  121. Muxing mode : zlib
  122. Codec ID : S_HDMV/PGS
  123. Codec ID/Info : Picture based subtitle format used on BDs/HD-DVDs
  124. Duration : 1 h 40 min
  125. Bit rate : 49.2 kb/s
  126. Count of elements : 1936
  127. Stream size : 35.3 MiB (0%)
  128. Language : German
  129. Default : No
  130. Forced : No
  131. Original source medium : Blu-ray

  132. Menu
  133. 00:00:00.000 : en:Chapter 01
  134. 00:03:22.202 : en:Chapter 02
  135. 00:13:41.028 : en:Chapter 03
  136. 00:21:57.774 : en:Chapter 04
  137. 00:29:00.739 : en:Chapter 05
  138. 00:34:46.084 : en:Chapter 06
  139. 00:40:24.797 : en:Chapter 07
  140. 00:45:14.962 : en:Chapter 08
  141. 00:50:00.914 : en:Chapter 09
  142. 00:55:49.262 : en:Chapter 10
  143. 01:02:37.378 : en:Chapter 11
  144. 01:09:11.772 : en:Chapter 12
  145. 01:16:41.096 : en:Chapter 13
  146. 01:23:29.921 : en:Chapter 14
  147. 01:29:39.957 : en:Chapter 15
  148. 01:33:25.391 : en:Chapter 16
  149. 01:40:42.828 : en:Chapter 17
复制代码








                                       

                                       
                                       
                                       




回复

使用道具 举报

懒得打字嘛,点击右侧快捷回复 【右侧内容,后台自定义】
您需要登录后才可以回帖 登录 | 立即加入

本版积分规则

Archiver|小黑屋| 蓝光电影网 |网站地图

Copyright © 2021 Comsenz Inc. Powered by 蓝光电影网

蓝光电影网

本站内容由用户自主分享和转载自互联网,转载目的在于传递更多信息,并不代表本网赞同其观点和对其真实性负责。

如有侵权、违反国家法律政策行为,请联系我们,我们会第一时间及时清除和处理!

举报反馈邮箱:[email protected]

快速回复 返回顶部 返回列表