找回密码

蓝光电影网

查看: 356|回复: 0

[8bit.SDR] 屏住呼吸2/别呼吸2 Dont.Breathe.2.2021.2160p.BluRay.x264.8bit.SDR.DTS-HD.MA.TrueHD.7.1.Atmos-SWTYBLZ 28.09GB

[复制链接]
蓝光币
733
发表于 2021-10-26 19:44:14 | 显示全部楼层 |阅读模式


◎译  名 屏住呼吸2/别呼吸2/临时停止呼吸2(台)/禁室杀戮2(港)
◎片  名 Don't Breathe 2
◎年  代 2021
◎产  地 美国,塞尔维亚
◎类  别 惊悚 / 可骇
◎语  言 英语
◎上映日期 2021-08-13(美国)
◎豆瓣评分 6.5/10 from 18119 users
◎豆瓣链接 https://movie.douban.com/subject/26915921/
◎片  长 98分钟
◎导  演 罗多·赛亚格斯 Rodo Sayagues
◎编  剧 费德·阿尔瓦雷兹 Fede Alvarez / 罗多·赛亚格斯 Rodo Sayagues
◎主  演 史蒂芬·朗 Stephen Lang
       布兰登·萨克斯顿 Brendan Sexton III
       马德琳·格雷斯 Madelyn Grace
       罗奇·威廉姆斯 Rocci Williams
       斯蒂芬妮·阿西拉 Stephanie Arcila
       鲍比·斯科菲尔德 Bobby Schofield
       戴安娜·巴尼科娃 Diaana Babnicova
       亚当·扬 Adam Young
       克里斯蒂安·泽吉亚 Christian Zagia
       罗恩·罗格尔 Ron Rogell
       菲奥娜·奥肖内西 Fiona O'Shaughnessy
◎标  签 惊悚 | 犯罪 | 美国 | 悬疑 | 2021 | 可骇 | 美国电影 | 电影
◎简  介


  《屏住呼吸1》编剧罗多·赛亚格斯执导,并同前作导演费德·阿尔瓦雷兹一路写剧本,史蒂芬·朗、罗奇·威廉姆斯、斯蒂芬妮·阿西拉、鲍比·斯科菲尔德、亚当·扬等主演。
  
  故事发生在最初致命的入室抢劫以后的几年,眼盲的退伍老兵诺曼过着安静的生活,直到曩昔的罪行起头找上他。
  1. Video
  2. ID                                       : 1
  3. Format                                   : AVC
  4. Format/Info                              : Advanced Video Codec
  5. Format profile                           : [email protected]
  6. Format settings                          : CABAC / 5 Ref Frames
  7. Format settings, CABAC                   : Yes
  8. Format settings, Reference frames        : 5 frames
  9. Codec ID                                 : V_MPEG4/ISO/AVC
  10. Duration                                 : 1 h 38 min
  11. Bit rate                                 : 31.8 Mb/s
  12. Width                                    : 3 840 pixels
  13. Height                                   : 1 608 pixels
  14. Display aspect ratio                     : 2.40:1
  15. Frame rate mode                          : Constant
  16. Frame rate                               : 23.976 (24000/1001/189150) FPS
  17. Color space                              : YUV
  18. Chroma subsampling                       : 4:2:0
  19. Bit depth                                : 8 bits
  20. Scan type                                : Progressive
  21. Bits/(Pixel*Frame)                       : 0.215
  22. Stream size                              : 21.8 GiB (78%)
  23. Writing library                          : x264 core 157 r2935 545de2f
  24. Encoding settings                        : cabac=1 / ref=5 / deblock=1:-1:-1 / analyse=0x3:0x113 / me=umh / subme=10 / psy=1 / psy_rd=1.00:0.15 / mixed_ref=1 / me_range=48 / chroma_me=1 / trellis=2 / 8x8dct=1 / cqm=0 / deadzone=21,11 / fast_pskip=1 / chroma_qp_offset=-3 / threads=38 / lookahead_threads=3 / sliced_threads=0 / nr=0 / decimate=0 / interlaced=0 / bluray_compat=0 / constrained_intra=0 / bframes=3 / b_pyramid=2 / b_adapt=2 / b_bias=0 / direct=3 / weightb=1 / open_gop=0 / weightp=2 / keyint=250 / keyint_min=23 / scenecut=40 / intra_refresh=0 / rc_lookahead=50 / rc=crf / mbtree=1 / crf=18.0 / qcomp=0.60 / qpmin=0 / qpmax=69 / qpstep=4 / ip_ratio=1.40 / aq=1:1.00
  25. Default                                  : Yes
  26. Forced                                   : No

  27. Audio #1
  28. ID                                       : 2
  29. ID in the original source medium         : 4352 (0x1100)
  30. Format                                   : MLP FBA 16-ch
  31. Format/Info                              : Meridian Lossless Packing FBA with 16-channel presentation
  32. Commercial name                          : Dolby TrueHD with Dolby Atmos
  33. Codec ID                                 : A_TRUEHD
  34. Duration                                 : 1 h 38 min
  35. Bit rate mode                            : Variable
  36. Bit rate                                 : 4 174 kb/s
  37. Maximum bit rate                         : 7 536 kb/s
  38. Channel(s)                               : 8 channels
  39. Channel layout                           : L R C LFE Ls Rs Lb Rb
  40. Sampling rate                            : 48.0 kHz
  41. Frame rate                               : 1 200.000 FPS (40 SPF)
  42. Bit depth                                : 24 bits
  43. Compression mode                         : Lossless
  44. Stream size                              : 2.86 GiB (10%)
  45. Title                                    : TrueHD 7.1 Atmos
  46. Language                                 : English
  47. Default                                  : Yes
  48. Forced                                   : No
  49. Original source medium                   : Blu-ray
  50. Number of dynamic objects                : 11
  51. Bed channel count                        : 1 channel
  52. Bed channel configuration                : LFE

  53. Audio #2
  54. ID                                       : 3
  55. Format                                   : DTS XLL
  56. Format/Info                              : Digital Theater Systems
  57. Commercial name                          : DTS-HD Master Audio
  58. Codec ID                                 : A_DTS
  59. Duration                                 : 1 h 38 min
  60. Bit rate mode                            : Variable
  61. Bit rate                                 : 3 981 kb/s
  62. Channel(s)                               : 8 channels
  63. Channel layout                           : C L R LFE Lb Rb Lss Rss
  64. Sampling rate                            : 48.0 kHz
  65. Frame rate                               : 93.750 FPS (512 SPF)
  66. Bit depth                                : 24 bits
  67. Compression mode                         : Lossless
  68. Stream size                              : 2.73 GiB (10%)
  69. Title                                    : DTS-HD MA 7.1
  70. Language                                 : English
  71. Default                                  : No
  72. Forced                                   : No

  73. Audio #3
  74. ID                                       : 4
  75. ID in the original source medium         : 4352 (0x1100)
  76. Format                                   : AC-3
  77. Format/Info                              : Audio Coding 3
  78. Commercial name                          : Dolby Digital
  79. Codec ID                                 : A_AC3
  80. Duration                                 : 1 h 38 min
  81. Bit rate mode                            : Constant
  82. Bit rate                                 : 640 kb/s
  83. Channel(s)                               : 6 channels
  84. Channel layout                           : L R C LFE Ls Rs
  85. Sampling rate                            : 48.0 kHz
  86. Frame rate                               : 31.250 FPS (1536 SPF)
  87. Compression mode                         : Lossy
  88. Stream size                              : 450 MiB (2%)
  89. Title                                    : DD 5.1
  90. Language                                 : English
  91. Service kind                             : Complete Main
  92. Default                                  : No
  93. Forced                                   : No
  94. Original source medium                   : Blu-ray

  95. Text #1
  96. ID                                       : 5
  97. Format                                   : UTF-8
  98. Codec ID                                 : S_TEXT/UTF8
  99. Codec ID/Info                            : UTF-8 Plain Text
  100. Duration                                 : 1 h 26 min
  101. Bit rate                                 : 15 b/s
  102. Count of elements                        : 467
  103. Stream size                              : 9.84 KiB (0%)
  104. Title                                    : SRT
  105. Language                                 : English
  106. Default                                  : Yes
  107. Forced                                   : No

  108. Text #2
  109. ID                                       : 6
  110. ID in the original source medium         : 4768 (0x12A0)
  111. Format                                   : PGS
  112. Muxing mode                              : zlib
  113. Codec ID                                 : S_HDMV/PGS
  114. Codec ID/Info                            : Picture based subtitle format used on BDs/HD-DVDs
  115. Duration                                 : 1 h 30 min
  116. Bit rate                                 : 14.9 kb/s
  117. Count of elements                        : 1466
  118. Stream size                              : 9.67 MiB (0%)
  119. Language                                 : English
  120. Default                                  : No
  121. Forced                                   : No
  122. Original source medium                   : Blu-ray

  123. Text #3
  124. ID                                       : 7
  125. ID in the original source medium         : 4769 (0x12A1)
  126. Format                                   : PGS
  127. Muxing mode                              : zlib
  128. Codec ID                                 : S_HDMV/PGS
  129. Codec ID/Info                            : Picture based subtitle format used on BDs/HD-DVDs
  130. Duration                                 : 1 h 26 min
  131. Bit rate                                 : 9 894 b/s
  132. Count of elements                        : 986
  133. Stream size                              : 6.15 MiB (0%)
  134. Language                                 : English
  135. Default                                  : No
  136. Forced                                   : No
  137. Original source medium                   : Blu-ray

  138. Text #4
  139. ID                                       : 8
  140. ID in the original source medium         : 4770 (0x12A2)
  141. Format                                   : PGS
  142. Muxing mode                              : zlib
  143. Codec ID                                 : S_HDMV/PGS
  144. Codec ID/Info                            : Picture based subtitle format used on BDs/HD-DVDs
  145. Duration                                 : 1 h 36 min
  146. Bit rate                                 : 7 679 b/s
  147. Count of elements                        : 918
  148. Stream size                              : 5.29 MiB (0%)
  149. Language                                 : Chinese
  150. Default                                  : No
  151. Forced                                   : No
  152. Original source medium                   : Blu-ray

  153. Text #5
  154. ID                                       : 9
  155. ID in the original source medium         : 4771 (0x12A3)
  156. Format                                   : PGS
  157. Muxing mode                              : zlib
  158. Codec ID                                 : S_HDMV/PGS
  159. Codec ID/Info                            : Picture based subtitle format used on BDs/HD-DVDs
  160. Duration                                 : 1 h 36 min
  161. Bit rate                                 : 7 595 b/s
  162. Count of elements                        : 914
  163. Stream size                              : 5.23 MiB (0%)
  164. Language                                 : Chinese
  165. Default                                  : No
  166. Forced                                   : No
  167. Original source medium                   : Blu-ray

  168. Text #6
  169. ID                                       : 10
  170. ID in the original source medium         : 4772 (0x12A4)
  171. Format                                   : PGS
  172. Muxing mode                              : zlib
  173. Codec ID                                 : S_HDMV/PGS
  174. Codec ID/Info                            : Picture based subtitle format used on BDs/HD-DVDs
  175. Duration                                 : 1 h 36 min
  176. Bit rate                                 : 7 190 b/s
  177. Count of elements                        : 916
  178. Stream size                              : 4.95 MiB (0%)
  179. Language                                 : Chinese
  180. Default                                  : No
  181. Forced                                   : No
  182. Original source medium                   : Blu-ray

  183. Text #7
  184. ID                                       : 11
  185. ID in the original source medium         : 4773 (0x12A5)
  186. Format                                   : PGS
  187. Muxing mode                              : zlib
  188. Codec ID                                 : S_HDMV/PGS
  189. Codec ID/Info                            : Picture based subtitle format used on BDs/HD-DVDs
  190. Duration                                 : 1 h 36 min
  191. Bit rate                                 : 8 093 b/s
  192. Count of elements                        : 846
  193. Stream size                              : 5.57 MiB (0%)
  194. Language                                 : French
  195. Default                                  : No
  196. Forced                                   : No
  197. Original source medium                   : Blu-ray

  198. Text #8
  199. ID                                       : 12
  200. ID in the original source medium         : 4774 (0x12A6)
  201. Format                                   : PGS
  202. Muxing mode                              : zlib
  203. Codec ID                                 : S_HDMV/PGS
  204. Codec ID/Info                            : Picture based subtitle format used on BDs/HD-DVDs
  205. Duration                                 : 1 h 36 min
  206. Bit rate                                 : 9 795 b/s
  207. Count of elements                        : 906
  208. Stream size                              : 6.74 MiB (0%)
  209. Language                                 : Indonesian
  210. Default                                  : No
  211. Forced                                   : No
  212. Original source medium                   : Blu-ray

  213. Text #9
  214. ID                                       : 13
  215. ID in the original source medium         : 4775 (0x12A7)
  216. Format                                   : PGS
  217. Muxing mode                              : zlib
  218. Codec ID                                 : S_HDMV/PGS
  219. Codec ID/Info                            : Picture based subtitle format used on BDs/HD-DVDs
  220. Duration                                 : 1 h 36 min
  221. Bit rate                                 : 7 309 b/s
  222. Count of elements                        : 924
  223. Stream size                              : 5.03 MiB (0%)
  224. Language                                 : Korean
  225. Default                                  : No
  226. Forced                                   : No
  227. Original source medium                   : Blu-ray

  228. Text #10
  229. ID                                       : 14
  230. ID in the original source medium         : 4776 (0x12A8)
  231. Format                                   : PGS
  232. Muxing mode                              : zlib
  233. Codec ID                                 : S_HDMV/PGS
  234. Codec ID/Info                            : Picture based subtitle format used on BDs/HD-DVDs
  235. Duration                                 : 1 h 36 min
  236. Bit rate                                 : 10.4 kb/s
  237. Count of elements                        : 910
  238. Stream size                              : 7.16 MiB (0%)
  239. Language                                 : Malay
  240. Default                                  : No
  241. Forced                                   : No
  242. Original source medium                   : Blu-ray

  243. Text #11
  244. ID                                       : 15
  245. ID in the original source medium         : 4777 (0x12A9)
  246. Format                                   : PGS
  247. Muxing mode                              : zlib
  248. Codec ID                                 : S_HDMV/PGS
  249. Codec ID/Info                            : Picture based subtitle format used on BDs/HD-DVDs
  250. Duration                                 : 1 h 36 min
  251. Bit rate                                 : 9 196 b/s
  252. Count of elements                        : 890
  253. Stream size                              : 6.33 MiB (0%)
  254. Language                                 : Portuguese
  255. Default                                  : No
  256. Forced                                   : No
  257. Original source medium                   : Blu-ray

  258. Text #12
  259. ID                                       : 16
  260. ID in the original source medium         : 4777 (0x12A9)
  261. Format                                   : PGS
  262. Muxing mode                              : zlib
  263. Codec ID                                 : S_HDMV/PGS
  264. Codec ID/Info                            : Picture based subtitle format used on BDs/HD-DVDs
  265. Duration                                 : 1 h 36 min
  266. Bit rate                                 : 85 b/s
  267. Count of elements                        : 8
  268. Stream size                              : 60.0 KiB (0%)
  269. Language                                 : Portuguese
  270. Default                                  : No
  271. Forced                                   : No
  272. Original source medium                   : Blu-ray

  273. Text #13
  274. ID                                       : 17
  275. ID in the original source medium         : 4778 (0x12AA)
  276. Format                                   : PGS
  277. Muxing mode                              : zlib
  278. Codec ID                                 : S_HDMV/PGS
  279. Codec ID/Info                            : Picture based subtitle format used on BDs/HD-DVDs
  280. Duration                                 : 1 h 36 min
  281. Bit rate                                 : 9 040 b/s
  282. Count of elements                        : 896
  283. Stream size                              : 6.22 MiB (0%)
  284. Language                                 : Spanish
  285. Default                                  : No
  286. Forced                                   : No
  287. Original source medium                   : Blu-ray

  288. Text #14
  289. ID                                       : 18
  290. ID in the original source medium         : 4778 (0x12AA)
  291. Format                                   : PGS
  292. Muxing mode                              : zlib
  293. Codec ID                                 : S_HDMV/PGS
  294. Codec ID/Info                            : Picture based subtitle format used on BDs/HD-DVDs
  295. Duration                                 : 1 h 36 min
  296. Bit rate                                 : 55 b/s
  297. Count of elements                        : 4
  298. Stream size                              : 38.8 KiB (0%)
  299. Language                                 : Spanish
  300. Default                                  : No
  301. Forced                                   : No
  302. Original source medium                   : Blu-ray

  303. Text #15
  304. ID                                       : 19
  305. ID in the original source medium         : 4779 (0x12AB)
  306. Format                                   : PGS
  307. Muxing mode                              : zlib
  308. Codec ID                                 : S_HDMV/PGS
  309. Codec ID/Info                            : Picture based subtitle format used on BDs/HD-DVDs
  310. Duration                                 : 1 h 36 min
  311. Bit rate                                 : 8 157 b/s
  312. Count of elements                        : 914
  313. Stream size                              : 5.62 MiB (0%)
  314. Language                                 : Thai
  315. Default                                  : No
  316. Forced                                   : No
  317. Original source medium                   : Blu-ray

  318. Text #16
  319. ID                                       : 20
  320. ID in the original source medium         : 4780 (0x12AC)
  321. Format                                   : PGS
  322. Muxing mode                              : zlib
  323. Codec ID                                 : S_HDMV/PGS
  324. Codec ID/Info                            : Picture based subtitle format used on BDs/HD-DVDs
  325. Duration                                 : 1 h 36 min
  326. Bit rate                                 : 71 b/s
  327. Count of elements                        : 6
  328. Stream size                              : 50.6 KiB (0%)
  329. Language                                 : French
  330. Default                                  : No
  331. Forced                                   : No
  332. Original source medium                   : Blu-ray

  333. Text #17
  334. ID                                       : 21
  335. ID in the original source medium         : 4780 (0x12AC)
  336. Format                                   : PGS
  337. Muxing mode                              : zlib
  338. Codec ID                                 : S_HDMV/PGS
  339. Codec ID/Info                            : Picture based subtitle format used on BDs/HD-DVDs
  340. Duration                                 : 1 h 36 min
  341. Bit rate                                 : 71 b/s
  342. Count of elements                        : 6
  343. Stream size                              : 50.6 KiB (0%)
  344. Language                                 : French
  345. Default                                  : No
  346. Forced                                   : No
  347. Original source medium                   : Blu-ray

  348. Menu
  349. 00:00:00.000                             : en:Chapter 01
  350. 00:04:06.037                             : en:Chapter 02
  351. 00:08:39.477                             : en:Chapter 03
  352. 00:13:10.539                             : en:Chapter 04
  353. 00:19:12.776                             : en:Chapter 05
  354. 00:24:10.449                             : en:Chapter 06
  355. 00:28:03.890                             : en:Chapter 07
  356. 00:31:33.933                             : en:Chapter 08
  357. 00:37:14.774                             : en:Chapter 09
  358. 00:41:25.941                             : en:Chapter 10
  359. 00:45:21.593                             : en:Chapter 11
  360. 00:50:37.242                             : en:Chapter 12
  361. 00:55:42.630                             : en:Chapter 13
  362. 01:02:19.861                             : en:Chapter 14
  363. 01:09:26.245                             : en:Chapter 15
  364. 01:18:19.319                             : en:Chapter 16
复制代码









                                       
                                       

                                       
                                       
                                       




回复

使用道具 举报

懒得打字嘛,点击右侧快捷回复 【右侧内容,后台自定义】
您需要登录后才可以回帖 登录 | 立即加入

本版积分规则

Archiver|小黑屋| 蓝光电影网 |网站地图

Copyright © 2021 Comsenz Inc. Powered by 蓝光电影网

蓝光电影网

本站内容由用户自主分享和转载自互联网,转载目的在于传递更多信息,并不代表本网赞同其观点和对其真实性负责。

如有侵权、违反国家法律政策行为,请联系我们,我们会第一时间及时清除和处理!

举报反馈邮箱:[email protected]

快速回复 返回顶部 返回列表