找回密码

蓝光电影网

查看: 330|回复: 4

[惊悚] 屏住呼吸2/别呼吸2 Dont.Breathe.2.2021.1080p.BluRay.x264.DTS-FGT 8.93GB

[复制链接]
蓝光币
730
发表于 2021-10-26 21:47:15 | 显示全部楼层 |阅读模式


◎译  名 屏住呼吸2/别呼吸2/临时停止呼吸2(台)/禁室杀戮2(港)
◎片  名 Don't Breathe 2
◎年  代 2021
◎产  地 美国,塞尔维亚
◎类  别 惊悚 / 可骇
◎语  言 英语
◎上映日期 2021-08-13(美国)
◎豆瓣评分 6.5/10 from 18127 users
◎豆瓣链接 https://movie.douban.com/subject/26915921/
◎片  长 98分钟
◎导  演 罗多·赛亚格斯 Rodo Sayagues
◎编  剧 费德·阿尔瓦雷兹 Fede Alvarez / 罗多·赛亚格斯 Rodo Sayagues
◎主  演 史蒂芬·朗 Stephen Lang
       布兰登·萨克斯顿 Brendan Sexton III
       马德琳·格雷斯 Madelyn Grace
       罗奇·威廉姆斯 Rocci Williams
       斯蒂芬妮·阿西拉 Stephanie Arcila
       鲍比·斯科菲尔德 Bobby Schofield
       戴安娜·巴尼科娃 Diaana Babnicova
       亚当·扬 Adam Young
       克里斯蒂安·泽吉亚 Christian Zagia
       罗恩·罗格尔 Ron Rogell
       菲奥娜·奥肖内西 Fiona O'Shaughnessy
◎标  签 惊悚 | 犯罪 | 美国 | 悬疑 | 2021 | 可骇 | 美国电影 | 电影
◎简  介


  《屏住呼吸1》编剧罗多·赛亚格斯执导,并同前作导演费德·阿尔瓦雷兹一路写剧本,史蒂芬·朗、罗奇·威廉姆斯、斯蒂芬妮·阿西拉、鲍比·斯科菲尔德、亚当·扬等主演。
  
  故事发生在最初致命的入室抢劫以后的几年,眼盲的退伍老兵诺曼过着安静的生活,直到曩昔的罪行起头找上他。
  1. Video
  2. ID                                       : 1
  3. Format                                   : AVC
  4. Format/Info                              : Advanced Video Codec
  5. Format profile                           : [email protected]
  6. Format settings                          : CABAC / 4 Ref Frames
  7. Format settings, CABAC                   : Yes
  8. Format settings, Reference frames        : 4 frames
  9. Codec ID                                 : V_MPEG4/ISO/AVC
  10. Duration                                 : 1 h 38 min
  11. Bit rate                                 : 11.5 Mb/s
  12. Width                                    : 1 920 pixels
  13. Height                                   : 804 pixels
  14. Display aspect ratio                     : 2.40:1
  15. Frame rate mode                          : Constant
  16. Frame rate                               : 23.976 (24000/1001/189150) FPS
  17. Color space                              : YUV
  18. Chroma subsampling                       : 4:2:0
  19. Bit depth                                : 8 bits
  20. Scan type                                : Progressive
  21. Bits/(Pixel*Frame)                       : 0.311
  22. Stream size                              : 7.89 GiB (88%)
  23. Writing library                          : x264 core 148 r2795M aaa9aa8
  24. Encoding settings                        : cabac=1 / ref=4 / deblock=1:-2:-2 / analyse=0x3:0x113 / me=umh / subme=9 / psy=1 / psy_rd=1.00:0.15 / mixed_ref=1 / me_range=16 / chroma_me=1 / trellis=2 / 8x8dct=1 / cqm=0 / deadzone=21,11 / fast_pskip=1 / chroma_qp_offset=-3 / threads=72 / lookahead_threads=3 / sliced_threads=0 / nr=0 / decimate=1 / interlaced=0 / bluray_compat=0 / constrained_intra=0 / bframes=3 / b_pyramid=2 / b_adapt=1 / b_bias=0 / direct=3 / weightb=1 / open_gop=0 / weightp=2 / keyint=250 / keyint_min=25 / scenecut=40 / intra_refresh=0 / rc_lookahead=50 / rc=2pass / mbtree=1 / bitrate=11500 / ratetol=1.0 / qcomp=0.60 / qpmin=0 / qpmax=69 / qpstep=4 / cplxblur=20.0 / qblur=0.5 / vbv_maxrate=31250 / vbv_bufsize=31250 / nal_hrd=none / filler=0 / ip_ratio=1.40 / aq=1:1.00
  25. Language                                 : English
  26. Default                                  : Yes
  27. Forced                                   : No
  28. Audio
  29. ID                                       : 2
  30. Format                                   : DTS
  31. Format/Info                              : Digital Theater Systems
  32. Codec ID                                 : A_DTS
  33. Duration                                 : 1 h 38 min
  34. Bit rate mode                            : Constant
  35. Bit rate                                 : 1 509 kb/s
  36. Channel(s)                               : 6 channels
  37. Channel layout                           : C L R Ls Rs LFE
  38. Sampling rate                            : 48.0 kHz
  39. Frame rate                               : 93.750 FPS (512 SPF)
  40. Bit depth                                : 24 bits
  41. Compression mode                         : Lossy
  42. Stream size                              : 1.04 GiB (12%)
  43. Language                                 : English
  44. Default                                  : Yes
  45. Forced                                   : No
  46. Text
  47. ID                                       : 3
  48. Format                                   : UTF-8
  49. Codec ID                                 : S_TEXT/UTF8
  50. Codec ID/Info                            : UTF-8 Plain Text
  51. Duration                                 : 1 h 26 min
  52. Bit rate                                 : 15 b/s
  53. Count of elements                        : 467
  54. Stream size                              : 9.84 KiB (0%)
  55. Title                                    : SRT
  56. Language                                 : English
  57. Default                                  : Yes
  58. Forced                                   : No
  59. Menu
  60. 00:00:00.000                             : en:Chapter 01
  61. 00:04:06.371                             : en:Chapter 02
  62. 00:08:39.352                             : en:Chapter 03
  63. 00:13:10.790                             : en:Chapter 04
  64. 00:19:12.734                             : en:Chapter 05
  65. 00:24:10.532                             : en:Chapter 06
  66. 00:28:03.807                             : en:Chapter 07
  67. 00:31:33.683                             : en:Chapter 08
  68. 00:37:15.107                             : en:Chapter 09
  69. 00:41:25.649                             : en:Chapter 10
  70. 00:45:21.927                             : en:Chapter 11
  71. 00:50:36.992                             : en:Chapter 12
  72. 00:55:42.797                             : en:Chapter 13
  73. 01:02:19.652                             : en:Chapter 14
  74. 01:09:26.537                             : en:Chapter 15
  75. 01:18:19.986                             : en:Chapter 16
复制代码







                                       
                                       

                                       
                                       
                                       




回复

使用道具 举报

蓝光币
2
发表于 2021-10-26 23:27:33 | 显示全部楼层
楼主发贴辛苦了,谢谢楼主分享!我觉得蓝光电影网是注册对了!
回复 支持 反对

使用道具 举报

蓝光币
87
发表于 2021-10-27 01:54:36 | 显示全部楼层
楼主发贴辛苦了,谢谢楼主分享!我觉得蓝光电影网是注册对了!
回复 支持 反对

使用道具 举报

蓝光币
5
发表于 2021-10-29 00:07:24 | 显示全部楼层
楼主发贴辛苦了,谢谢楼主分享!我觉得蓝光电影网是注册对了!
回复 支持 反对

使用道具 举报

蓝光币
4
发表于 2021-10-31 23:51:24 | 显示全部楼层

楼主太厉害了!楼主,电影应该很好看我觉得蓝光电影网真是个好地方!
回复 支持 反对

使用道具 举报

懒得打字嘛,点击右侧快捷回复 【右侧内容,后台自定义】
您需要登录后才可以回帖 登录 | 立即加入

本版积分规则

Archiver|小黑屋| 蓝光电影网 |网站地图

Copyright © 2021 Comsenz Inc. Powered by 蓝光电影网

蓝光电影网

本站内容由用户自主分享和转载自互联网,转载目的在于传递更多信息,并不代表本网赞同其观点和对其真实性负责。

如有侵权、违反国家法律政策行为,请联系我们,我们会第一时间及时清除和处理!

举报反馈邮箱:[email protected]

快速回复 返回顶部 返回列表