找回密码

蓝光电影网

查看: 276|回复: 0

[惊悚] 屏住呼吸2/别呼吸2 Dont.Breathe.2.2021.1080p.BluRay.x264.TrueHD.7.1.Atmos-FGT 11.28GB

[复制链接]
蓝光币
682
发表于 2021-10-26 21:43:47 | 显示全部楼层 |阅读模式


◎译  名 屏住呼吸2/别呼吸2/临时停止呼吸2(台)/禁室杀戮2(港)
◎片  名 Don't Breathe 2
◎年  代 2021
◎产  地 美国,塞尔维亚
◎类  别 惊悚 / 可骇
◎语  言 英语
◎上映日期 2021-08-13(美国)
◎豆瓣评分 6.5/10 from 18127 users
◎豆瓣链接 https://movie.douban.com/subject/26915921/
◎片  长 98分钟
◎导  演 罗多·赛亚格斯 Rodo Sayagues
◎编  剧 费德·阿尔瓦雷兹 Fede Alvarez / 罗多·赛亚格斯 Rodo Sayagues
◎主  演 史蒂芬·朗 Stephen Lang
       布兰登·萨克斯顿 Brendan Sexton III
       马德琳·格雷斯 Madelyn Grace
       罗奇·威廉姆斯 Rocci Williams
       斯蒂芬妮·阿西拉 Stephanie Arcila
       鲍比·斯科菲尔德 Bobby Schofield
       戴安娜·巴尼科娃 Diaana Babnicova
       亚当·扬 Adam Young
       克里斯蒂安·泽吉亚 Christian Zagia
       罗恩·罗格尔 Ron Rogell
       菲奥娜·奥肖内西 Fiona O'Shaughnessy
◎标  签 惊悚 | 犯罪 | 美国 | 悬疑 | 2021 | 可骇 | 美国电影 | 电影
◎简  介


  《屏住呼吸1》编剧罗多·赛亚格斯执导,并同前作导演费德·阿尔瓦雷兹一路写剧本,史蒂芬·朗、罗奇·威廉姆斯、斯蒂芬妮·阿西拉、鲍比·斯科菲尔德、亚当·扬等主演。
  
  故事发生在最初致命的入室抢劫以后的几年,眼盲的退伍老兵诺曼过着安静的生活,直到曩昔的罪行起头找上他。
  1. Video
  2. ID                                       : 1
  3. Format                                   : AVC
  4. Format/Info                              : Advanced Video Codec
  5. Format profile                           : [email protected]
  6. Format settings                          : CABAC / 4 Ref Frames
  7. Format settings, CABAC                   : Yes
  8. Format settings, Reference frames        : 4 frames
  9. Codec ID                                 : V_MPEG4/ISO/AVC
  10. Duration                                 : 1 h 38 min
  11. Bit rate                                 : 11.5 Mb/s
  12. Width                                    : 1 920 pixels
  13. Height                                   : 804 pixels
  14. Display aspect ratio                     : 2.40:1
  15. Frame rate mode                          : Constant
  16. Frame rate                               : 23.976 (24000/1001/189150) FPS
  17. Color space                              : YUV
  18. Chroma subsampling                       : 4:2:0
  19. Bit depth                                : 8 bits
  20. Scan type                                : Progressive
  21. Bits/(Pixel*Frame)                       : 0.311
  22. Stream size                              : 7.89 GiB (70%)
  23. Writing library                          : x264 core 148 r2795M aaa9aa8
  24. Encoding settings                        : cabac=1 / ref=4 / deblock=1:-2:-2 / analyse=0x3:0x113 / me=umh / subme=9 / psy=1 / psy_rd=1.00:0.15 / mixed_ref=1 / me_range=16 / chroma_me=1 / trellis=2 / 8x8dct=1 / cqm=0 / deadzone=21,11 / fast_pskip=1 / chroma_qp_offset=-3 / threads=72 / lookahead_threads=3 / sliced_threads=0 / nr=0 / decimate=1 / interlaced=0 / bluray_compat=0 / constrained_intra=0 / bframes=3 / b_pyramid=2 / b_adapt=1 / b_bias=0 / direct=3 / weightb=1 / open_gop=0 / weightp=2 / keyint=250 / keyint_min=25 / scenecut=40 / intra_refresh=0 / rc_lookahead=50 / rc=2pass / mbtree=1 / bitrate=11500 / ratetol=1.0 / qcomp=0.60 / qpmin=0 / qpmax=69 / qpstep=4 / cplxblur=20.0 / qblur=0.5 / vbv_maxrate=31250 / vbv_bufsize=31250 / nal_hrd=none / filler=0 / ip_ratio=1.40 / aq=1:1.00
  25. Language                                 : English
  26. Default                                  : Yes
  27. Forced                                   : No
  28. Audio #1
  29. ID                                       : 2
  30. ID in the original source medium         : 4352 (0x1100)
  31. Format                                   : MLP FBA 16-ch
  32. Format/Info                              : Meridian Lossless Packing FBA with 16-channel presentation
  33. Commercial name                          : Dolby TrueHD with Dolby Atmos
  34. Codec ID                                 : A_TRUEHD
  35. Duration                                 : 1 h 38 min
  36. Bit rate mode                            : Variable
  37. Bit rate                                 : 4 174 kb/s
  38. Maximum bit rate                         : 7 536 kb/s
  39. Channel(s)                               : 8 channels
  40. Channel layout                           : L R C LFE Ls Rs Lb Rb
  41. Sampling rate                            : 48.0 kHz
  42. Frame rate                               : 1 200.000 FPS (40 SPF)
  43. Bit depth                                : 24 bits
  44. Compression mode                         : Lossless
  45. Stream size                              : 2.86 GiB (25%)
  46. Title                                    : TrueHD 7.1 Atmos
  47. Language                                 : English
  48. Default                                  : Yes
  49. Forced                                   : No
  50. Original source medium                   : Blu-ray
  51. Number of dynamic objects                : 11
  52. Bed channel count                        : 1 channel
  53. Bed channel configuration                : LFE
  54. Audio #2
  55. ID                                       : 3
  56. ID in the original source medium         : 4352 (0x1100)
  57. Format                                   : AC-3
  58. Format/Info                              : Audio Coding 3
  59. Commercial name                          : Dolby Digital
  60. Codec ID                                 : A_AC3
  61. Duration                                 : 1 h 38 min
  62. Bit rate mode                            : Constant
  63. Bit rate                                 : 640 kb/s
  64. Channel(s)                               : 6 channels
  65. Channel layout                           : L R C LFE Ls Rs
  66. Sampling rate                            : 48.0 kHz
  67. Frame rate                               : 31.250 FPS (1536 SPF)
  68. Compression mode                         : Lossy
  69. Stream size                              : 450 MiB (4%)
  70. Title                                    : DD 5.1
  71. Language                                 : English
  72. Service kind                             : Complete Main
  73. Default                                  : No
  74. Forced                                   : No
  75. Original source medium                   : Blu-ray
  76. Text #1
  77. ID                                       : 4
  78. Format                                   : UTF-8
  79. Codec ID                                 : S_TEXT/UTF8
  80. Codec ID/Info                            : UTF-8 Plain Text
  81. Duration                                 : 1 h 26 min
  82. Bit rate                                 : 15 b/s
  83. Count of elements                        : 467
  84. Stream size                              : 9.84 KiB (0%)
  85. Title                                    : SRT
  86. Language                                 : English
  87. Default                                  : Yes
  88. Forced                                   : No
  89. Text #2
  90. ID                                       : 5
  91. ID in the original source medium         : 4608 (0x1200)
  92. Format                                   : PGS
  93. Muxing mode                              : zlib
  94. Codec ID                                 : S_HDMV/PGS
  95. Codec ID/Info                            : Picture based subtitle format used on BDs/HD-DVDs
  96. Duration                                 : 1 h 30 min
  97. Bit rate                                 : 14.9 kb/s
  98. Count of elements                        : 1466
  99. Stream size                              : 9.67 MiB (0%)
  100. Language                                 : English
  101. Default                                  : No
  102. Forced                                   : No
  103. Original source medium                   : Blu-ray
  104. Text #3
  105. ID                                       : 6
  106. ID in the original source medium         : 4609 (0x1201)
  107. Format                                   : PGS
  108. Muxing mode                              : zlib
  109. Codec ID                                 : S_HDMV/PGS
  110. Codec ID/Info                            : Picture based subtitle format used on BDs/HD-DVDs
  111. Duration                                 : 1 h 26 min
  112. Bit rate                                 : 9 894 b/s
  113. Count of elements                        : 986
  114. Stream size                              : 6.15 MiB (0%)
  115. Language                                 : English
  116. Default                                  : No
  117. Forced                                   : No
  118. Original source medium                   : Blu-ray
  119. Text #4
  120. ID                                       : 7
  121. ID in the original source medium         : 4610 (0x1202)
  122. Format                                   : PGS
  123. Muxing mode                              : zlib
  124. Codec ID                                 : S_HDMV/PGS
  125. Codec ID/Info                            : Picture based subtitle format used on BDs/HD-DVDs
  126. Duration                                 : 1 h 36 min
  127. Bit rate                                 : 7 679 b/s
  128. Count of elements                        : 918
  129. Stream size                              : 5.29 MiB (0%)
  130. Language                                 : Chinese
  131. Default                                  : No
  132. Forced                                   : No
  133. Original source medium                   : Blu-ray
  134. Text #5
  135. ID                                       : 8
  136. ID in the original source medium         : 4611 (0x1203)
  137. Format                                   : PGS
  138. Muxing mode                              : zlib
  139. Codec ID                                 : S_HDMV/PGS
  140. Codec ID/Info                            : Picture based subtitle format used on BDs/HD-DVDs
  141. Duration                                 : 1 h 36 min
  142. Bit rate                                 : 7 595 b/s
  143. Count of elements                        : 914
  144. Stream size                              : 5.23 MiB (0%)
  145. Language                                 : Chinese
  146. Default                                  : No
  147. Forced                                   : No
  148. Original source medium                   : Blu-ray
  149. Text #6
  150. ID                                       : 9
  151. ID in the original source medium         : 4612 (0x1204)
  152. Format                                   : PGS
  153. Muxing mode                              : zlib
  154. Codec ID                                 : S_HDMV/PGS
  155. Codec ID/Info                            : Picture based subtitle format used on BDs/HD-DVDs
  156. Duration                                 : 1 h 36 min
  157. Bit rate                                 : 7 190 b/s
  158. Count of elements                        : 916
  159. Stream size                              : 4.95 MiB (0%)
  160. Language                                 : Chinese
  161. Default                                  : No
  162. Forced                                   : No
  163. Original source medium                   : Blu-ray
  164. Text #7
  165. ID                                       : 10
  166. ID in the original source medium         : 4613 (0x1205)
  167. Format                                   : PGS
  168. Muxing mode                              : zlib
  169. Codec ID                                 : S_HDMV/PGS
  170. Codec ID/Info                            : Picture based subtitle format used on BDs/HD-DVDs
  171. Duration                                 : 1 h 36 min
  172. Bit rate                                 : 8 093 b/s
  173. Count of elements                        : 846
  174. Stream size                              : 5.57 MiB (0%)
  175. Language                                 : French
  176. Default                                  : No
  177. Forced                                   : No
  178. Original source medium                   : Blu-ray
  179. Text #8
  180. ID                                       : 11
  181. ID in the original source medium         : 4614 (0x1206)
  182. Format                                   : PGS
  183. Muxing mode                              : zlib
  184. Codec ID                                 : S_HDMV/PGS
  185. Codec ID/Info                            : Picture based subtitle format used on BDs/HD-DVDs
  186. Duration                                 : 1 h 36 min
  187. Bit rate                                 : 9 795 b/s
  188. Count of elements                        : 906
  189. Stream size                              : 6.74 MiB (0%)
  190. Language                                 : Indonesian
  191. Default                                  : No
  192. Forced                                   : No
  193. Original source medium                   : Blu-ray
  194. Text #9
  195. ID                                       : 12
  196. ID in the original source medium         : 4615 (0x1207)
  197. Format                                   : PGS
  198. Muxing mode                              : zlib
  199. Codec ID                                 : S_HDMV/PGS
  200. Codec ID/Info                            : Picture based subtitle format used on BDs/HD-DVDs
  201. Duration                                 : 1 h 36 min
  202. Bit rate                                 : 7 309 b/s
  203. Count of elements                        : 924
  204. Stream size                              : 5.03 MiB (0%)
  205. Language                                 : Korean
  206. Default                                  : No
  207. Forced                                   : No
  208. Original source medium                   : Blu-ray
  209. Text #10
  210. ID                                       : 13
  211. ID in the original source medium         : 4616 (0x1208)
  212. Format                                   : PGS
  213. Muxing mode                              : zlib
  214. Codec ID                                 : S_HDMV/PGS
  215. Codec ID/Info                            : Picture based subtitle format used on BDs/HD-DVDs
  216. Duration                                 : 1 h 36 min
  217. Bit rate                                 : 10.4 kb/s
  218. Count of elements                        : 910
  219. Stream size                              : 7.16 MiB (0%)
  220. Language                                 : Malay
  221. Default                                  : No
  222. Forced                                   : No
  223. Original source medium                   : Blu-ray
  224. Text #11
  225. ID                                       : 14
  226. ID in the original source medium         : 4617 (0x1209)
  227. Format                                   : PGS
  228. Muxing mode                              : zlib
  229. Codec ID                                 : S_HDMV/PGS
  230. Codec ID/Info                            : Picture based subtitle format used on BDs/HD-DVDs
  231. Duration                                 : 1 h 36 min
  232. Bit rate                                 : 9 196 b/s
  233. Count of elements                        : 890
  234. Stream size                              : 6.33 MiB (0%)
  235. Language                                 : Portuguese
  236. Default                                  : No
  237. Forced                                   : No
  238. Original source medium                   : Blu-ray
  239. Text #12
  240. ID                                       : 15
  241. ID in the original source medium         : 4617 (0x1209)
  242. Format                                   : PGS
  243. Muxing mode                              : zlib
  244. Codec ID                                 : S_HDMV/PGS
  245. Codec ID/Info                            : Picture based subtitle format used on BDs/HD-DVDs
  246. Duration                                 : 1 h 36 min
  247. Bit rate                                 : 85 b/s
  248. Count of elements                        : 8
  249. Stream size                              : 60.0 KiB (0%)
  250. Language                                 : Portuguese
  251. Default                                  : No
  252. Forced                                   : No
  253. Original source medium                   : Blu-ray
  254. Text #13
  255. ID                                       : 16
  256. ID in the original source medium         : 4618 (0x120A)
  257. Format                                   : PGS
  258. Muxing mode                              : zlib
  259. Codec ID                                 : S_HDMV/PGS
  260. Codec ID/Info                            : Picture based subtitle format used on BDs/HD-DVDs
  261. Duration                                 : 1 h 36 min
  262. Bit rate                                 : 9 040 b/s
  263. Count of elements                        : 896
  264. Stream size                              : 6.22 MiB (0%)
  265. Language                                 : Spanish
  266. Default                                  : No
  267. Forced                                   : No
  268. Original source medium                   : Blu-ray
  269. Text #14
  270. ID                                       : 17
  271. ID in the original source medium         : 4618 (0x120A)
  272. Format                                   : PGS
  273. Muxing mode                              : zlib
  274. Codec ID                                 : S_HDMV/PGS
  275. Codec ID/Info                            : Picture based subtitle format used on BDs/HD-DVDs
  276. Duration                                 : 1 h 36 min
  277. Bit rate                                 : 55 b/s
  278. Count of elements                        : 4
  279. Stream size                              : 38.8 KiB (0%)
  280. Language                                 : Spanish
  281. Default                                  : No
  282. Forced                                   : No
  283. Original source medium                   : Blu-ray
  284. Text #15
  285. ID                                       : 18
  286. ID in the original source medium         : 4619 (0x120B)
  287. Format                                   : PGS
  288. Muxing mode                              : zlib
  289. Codec ID                                 : S_HDMV/PGS
  290. Codec ID/Info                            : Picture based subtitle format used on BDs/HD-DVDs
  291. Duration                                 : 1 h 36 min
  292. Bit rate                                 : 8 157 b/s
  293. Count of elements                        : 914
  294. Stream size                              : 5.62 MiB (0%)
  295. Language                                 : Thai
  296. Default                                  : No
  297. Forced                                   : No
  298. Original source medium                   : Blu-ray
  299. Text #16
  300. ID                                       : 19
  301. ID in the original source medium         : 4620 (0x120C)
  302. Format                                   : PGS
  303. Muxing mode                              : zlib
  304. Codec ID                                 : S_HDMV/PGS
  305. Codec ID/Info                            : Picture based subtitle format used on BDs/HD-DVDs
  306. Duration                                 : 1 h 36 min
  307. Bit rate                                 : 71 b/s
  308. Count of elements                        : 6
  309. Stream size                              : 50.6 KiB (0%)
  310. Language                                 : French
  311. Default                                  : No
  312. Forced                                   : No
  313. Original source medium                   : Blu-ray
  314. Text #17
  315. ID                                       : 20
  316. ID in the original source medium         : 4620 (0x120C)
  317. Format                                   : PGS
  318. Muxing mode                              : zlib
  319. Codec ID                                 : S_HDMV/PGS
  320. Codec ID/Info                            : Picture based subtitle format used on BDs/HD-DVDs
  321. Duration                                 : 1 h 36 min
  322. Bit rate                                 : 71 b/s
  323. Count of elements                        : 6
  324. Stream size                              : 50.6 KiB (0%)
  325. Language                                 : French
  326. Default                                  : No
  327. Forced                                   : No
  328. Original source medium                   : Blu-ray
  329. Menu
  330. 00:00:00.000                             : en:Chapter 01
  331. 00:04:06.371                             : en:Chapter 02
  332. 00:08:39.352                             : en:Chapter 03
  333. 00:13:10.790                             : en:Chapter 04
  334. 00:19:12.734                             : en:Chapter 05
  335. 00:24:10.532                             : en:Chapter 06
  336. 00:28:03.807                             : en:Chapter 07
  337. 00:31:33.683                             : en:Chapter 08
  338. 00:37:15.107                             : en:Chapter 09
  339. 00:41:25.649                             : en:Chapter 10
  340. 00:45:21.927                             : en:Chapter 11
  341. 00:50:36.992                             : en:Chapter 12
  342. 00:55:42.797                             : en:Chapter 13
  343. 01:02:19.652                             : en:Chapter 14
  344. 01:09:26.537                             : en:Chapter 15
  345. 01:18:19.986                             : en:Chapter 16
复制代码






                                       
                                       

                                       
                                       
                                       




回复

使用道具 举报

懒得打字嘛,点击右侧快捷回复 【右侧内容,后台自定义】
您需要登录后才可以回帖 登录 | 立即加入

本版积分规则

Archiver|小黑屋| 蓝光电影网 |网站地图

Copyright © 2021 Comsenz Inc. Powered by 蓝光电影网

蓝光电影网

本站内容由用户自主分享和转载自互联网,转载目的在于传递更多信息,并不代表本网赞同其观点和对其真实性负责。

如有侵权、违反国家法律政策行为,请联系我们,我们会第一时间及时清除和处理!

举报反馈邮箱:[email protected]

快速回复 返回顶部 返回列表