找回密码

蓝光电影网

查看: 374|回复: 3

[10bit.SDR] 黑夜传说/决战异世界 Underworld.2003.UNRATED.2160p.BluRay.x265.10bit.SDR.DTS-HD.MA.TrueHD.7.1.Atmos-SWTYBLZ 46.82GB

[复制链接]
蓝光币
730
发表于 2021-10-26 22:19:28 | 显示全部楼层 |阅读模式


◎译  名 黑夜传闻/决战异天下(台)/妖夜寻狼(港)
◎片  名 Underworld
◎年  代 2003
◎产  地 英国,德国,匈牙利,美国
◎类  别 行动 / 惊悚 / 奇异
◎语  言 英语
◎上映日期 2003-09-08(多伦多电影节) / 2003-09-19(美国)
◎豆瓣评分 7.5/10 from 88499 users
◎豆瓣链接 https://movie.douban.com/subject/1307527/
◎片  长 121分钟
◎导  演 伦·怀斯曼 Len Wiseman
◎编  剧 凯文·格雷维奥斯 Kevin Grevioux / 伦·怀斯曼 Len Wiseman / Danny McBride Danny McBride
◎主  演 凯特·贝金赛尔 Kate Beckinsale
       斯科特·斯比德曼 Scott Speedman
       麦克·辛 Michael Sheen
       山恩·布罗利 Shane Brolly
       比尔·奈伊 Bill Nighy
       艾尔文·莱德 Erwin Leder
       索菲娅·迈尔斯 Sophia Myles
       罗比·基 Robbie Gee
       温特沃斯·米勒 Wentworth Miller
       凯文·格雷维奥斯 Kevin Grevioux
       兹塔·格罗格 Zita G?r?g
       汉克·阿莫斯 Hank Amos
       理查德·赛特伦 Richard Cetrone
       Mike Mukatis Mike Mukatis
       Sándor Boros Sándor Boros
       安德烈·巴顿 Andreas Patton
       Danny McBride Danny McBride
       Jázmin Dammak Jázmin Dammak
       Ildikó Kovács Ildikó Kovács
       Ekkehardt Belle Ekkehardt Belle
       Reinhard Brock Reinhard Brock
       Pascal Breuer Pascal Breuer
       布莱恩·斯蒂尔 Brian Steele
       Kurt Carley Kurt Carley
       Zoltan Papp Zoltan Papp
◎标  签 吸血鬼 | 魔幻 | 美国 | 行动 | 科幻 | 奇异 | 美国电影 | 惊悚
◎简  介


  地球上一向存在着一个黑暗的地来天下。那边,两大种族――吸血鬼和狼人――在斗得不共戴天,每一方都以消灭对方种族为终极方针。
  
  一次,吸血鬼族的“月神”西丽妮(凯特?贝金赛尔 Kate Beckinsale 饰)在追杀几个落败的狼人时发现,狼人正在谋害绑架人类的一位医生麦克尔 (斯科特?斯比德曼 Scott Speedman 饰)。心知狼人必有所图,西丽妮单独前往狼窝查探。不意中了狼人的匿伏,身负重伤之际幸得麦克尔相救。在麦克尔送西丽妮回吸血鬼营地的途中,他意外被一只狼人咬伤了,由此揭开了麦克尔的身世之谜和狼人的诡计……
  1. Video
  2. ID                                       : 1
  3. Format                                   : HEVC
  4. Format/Info                              : High Efficiency Video Coding
  5. Format profile                           : Main [email protected]@High
  6. Codec ID                                 : V_MPEGH/ISO/HEVC
  7. Duration                                 : 2 h 13 min
  8. Bit rate                                 : 39.9 Mb/s
  9. Width                                    : 3 840 pixels
  10. Height                                   : 1 606 pixels
  11. Display aspect ratio                     : 2.40:1
  12. Frame rate mode                          : Constant
  13. Frame rate                               : 23.976 (24000/1001/189150) FPS
  14. Color space                              : YUV
  15. Chroma subsampling                       : 4:2:0
  16. Bit depth                                : 10 bits
  17. Bits/(Pixel*Frame)                       : 0.270
  18. Stream size                              : 37.2 GiB (80%)
  19. Writing library                          : x265 3.0ed72af837053:[Windows][GCC 8.2.0][64 bit] 10bit
  20. Encoding settings                        : cpuid=1111039 / frame-threads=6 / numa-pools=40 / wpp / no-pmode / no-pme / no-psnr / no-ssim / log-level=2 / input-csp=1 / input-res=3840x1606 / interlace=0 / total-frames=192209 / level-idc=51 / high-tier=1 / uhd-bd=0 / ref=3 / no-allow-non-conformance / repeat-headers / annexb / aud / hrd / info / hash=0 / no-temporal-layers / no-open-gop / min-keyint=1 / keyint=24 / gop-lookahead=0 / bframes=4 / b-adapt=2 / b-pyramid / bframe-bias=0 / rc-lookahead=25 / lookahead-slices=4 / scenecut=40 / radl=0 / no-splice / no-intra-refresh / ctu=64 / min-cu-size=8 / no-rect / no-amp / max-tu-size=32 / tu-inter-depth=1 / tu-intra-depth=1 / limit-tu=0 / rdoq-level=0 / dynamic-rd=0.00 / no-ssim-rd / signhide / no-tskip / nr-intra=0 / nr-inter=0 / no-constrained-intra / strong-intra-smoothing / max-merge=2 / limit-refs=3 / no-limit-modes / me=1 / subme=2 / merange=57 / temporal-mvp / weightp / no-weightb / no-analyze-src-pics / deblock=0:0 / no-sao / no-sao-non-deblock / rd=3 / no-early-skip / rskip / no-fast-intra / no-tskip-fast / no-cu-lossless / no-b-intra / no-splitrd-skip / rdpenalty=0 / psy-rd=2.00 / psy-rdoq=0.00 / no-rd-refine / no-lossless / cbqpoffs=0 / crqpoffs=0 / rc=crf / crf=16.0 / qcomp=0.60 / qpstep=4 / stats-write=0 / stats-read=0 / vbv-maxrate=160000 / vbv-bufsize=160000 / vbv-init=0.9 / crf-max=0.0 / crf-min=0.0 / ipratio=1.40 / pbratio=1.30 / aq-mode=1 / aq-strength=1.00 / cutree / zone-count=0 / no-strict-cbr / qg-size=32 / no-rc-grain / qpmax=69 / qpmin=0 / no-const-vbv / sar=1 / overscan=0 / videoformat=5 / range=0 / colorprim=2 / transfer=2 / colormatrix=2 / chromaloc=0 / display-window=0 / max-cll=0,0 / min-luma=0 / max-luma=1023 / log2-max-poc-lsb=8 / vui-timing-info / vui-hrd-info / slices=1 / opt-qp-pps / opt-ref-list-length-pps / no-multi-pass-opt-rps / scenecut-bias=0.05 / no-opt-cu-delta-qp / no-aq-motion / no-hdr / no-hdr-opt / no-dhdr10-opt / no-idr-recovery-sei / analysis-reuse-level=5 / scale-factor=0 / refine-intra=0 / refine-inter=0 / refine-mv=0 / refine-ctu-distortion=0 / no-limit-sao / ctu-info=0 / no-lowpass-dct / refine-analysis-type=0 / copy-pic=1 / max-ausize-factor=1.0 / no-dynamic-refine / no-single-sei / no-hevc-aq / qp-adaptation-range=1.00
  21. Default                                  : Yes
  22. Forced                                   : No
  23. Audio #1
  24. ID                                       : 2
  25. ID in the original source medium         : 4356 (0x1104)
  26. Format                                   : MLP FBA 16-ch
  27. Format/Info                              : Meridian Lossless Packing FBA with 16-channel presentation
  28. Commercial name                          : Dolby TrueHD with Dolby Atmos
  29. Codec ID                                 : A_TRUEHD
  30. Duration                                 : 2 h 13 min
  31. Bit rate mode                            : Variable
  32. Bit rate                                 : 4 932 kb/s
  33. Maximum bit rate                         : 8 271 kb/s
  34. Channel(s)                               : 8 channels
  35. Channel layout                           : L R C LFE Ls Rs Lb Rb
  36. Sampling rate                            : 48.0 kHz
  37. Frame rate                               : 1 200.000 FPS (40 SPF)
  38. Bit depth                                : 24 bits
  39. Compression mode                         : Lossless
  40. Stream size                              : 4.60 GiB (10%)
  41. Title                                    : TrueHD 7.1 Atmos
  42. Language                                 : English
  43. Default                                  : Yes
  44. Forced                                   : No
  45. Original source medium                   : Blu-ray
  46. Number of dynamic objects                : 11
  47. Bed channel count                        : 1 channel
  48. Bed channel configuration                : LFE
  49. Audio #2
  50. ID                                       : 3
  51. Format                                   : DTS XLL
  52. Format/Info                              : Digital Theater Systems
  53. Commercial name                          : DTS-HD Master Audio
  54. Codec ID                                 : A_DTS
  55. Duration                                 : 2 h 13 min
  56. Bit rate mode                            : Variable
  57. Bit rate                                 : 4 420 kb/s
  58. Channel(s)                               : 8 channels
  59. Channel layout                           : C L R LFE Lb Rb Lss Rss
  60. Sampling rate                            : 48.0 kHz
  61. Frame rate                               : 93.750 FPS (512 SPF)
  62. Bit depth                                : 24 bits
  63. Compression mode                         : Lossless
  64. Stream size                              : 4.13 GiB (9%)
  65. Title                                    : DTS-HD MA 7.1
  66. Language                                 : English
  67. Default                                  : No
  68. Forced                                   : No
  69. Audio #3
  70. ID                                       : 4
  71. ID in the original source medium         : 4356 (0x1104)
  72. Format                                   : AC-3
  73. Format/Info                              : Audio Coding 3
  74. Commercial name                          : Dolby Digital
  75. Codec ID                                 : A_AC3
  76. Duration                                 : 2 h 13 min
  77. Bit rate mode                            : Constant
  78. Bit rate                                 : 640 kb/s
  79. Channel(s)                               : 6 channels
  80. Channel layout                           : L R C LFE Ls Rs
  81. Sampling rate                            : 48.0 kHz
  82. Frame rate                               : 31.250 FPS (1536 SPF)
  83. Compression mode                         : Lossy
  84. Stream size                              : 612 MiB (1%)
  85. Title                                    : DD 5.1
  86. Language                                 : English
  87. Service kind                             : Complete Main
  88. Default                                  : No
  89. Forced                                   : No
  90. Original source medium                   : Blu-ray
  91. Text #1
  92. ID                                       : 5
  93. Format                                   : UTF-8
  94. Codec ID                                 : S_TEXT/UTF8
  95. Codec ID/Info                            : UTF-8 Plain Text
  96. Duration                                 : 2 h 12 min
  97. Bit rate                                 : 27 b/s
  98. Count of elements                        : 777
  99. Stream size                              : 26.6 KiB (0%)
  100. Title                                    : SRT
  101. Language                                 : English
  102. Default                                  : Yes
  103. Forced                                   : No
  104. Text #2
  105. ID                                       : 6
  106. ID in the original source medium         : 4768 (0x12A0)
  107. Format                                   : PGS
  108. Muxing mode                              : zlib
  109. Codec ID                                 : S_HDMV/PGS
  110. Codec ID/Info                            : Picture based subtitle format used on BDs/HD-DVDs
  111. Duration                                 : 2 h 12 min
  112. Bit rate                                 : 19.0 kb/s
  113. Count of elements                        : 2086
  114. Stream size                              : 18.1 MiB (0%)
  115. Title                                    : SDH
  116. Language                                 : English
  117. Default                                  : No
  118. Forced                                   : No
  119. Original source medium                   : Blu-ray
  120. Text #3
  121. ID                                       : 7
  122. ID in the original source medium         : 4769 (0x12A1)
  123. Format                                   : PGS
  124. Muxing mode                              : zlib
  125. Codec ID                                 : S_HDMV/PGS
  126. Codec ID/Info                            : Picture based subtitle format used on BDs/HD-DVDs
  127. Duration                                 : 2 h 4 min
  128. Bit rate                                 : 15.5 kb/s
  129. Count of elements                        : 1428
  130. Stream size                              : 13.8 MiB (0%)
  131. Language                                 : English
  132. Default                                  : No
  133. Forced                                   : No
  134. Original source medium                   : Blu-ray
  135. Text #4
  136. ID                                       : 8
  137. ID in the original source medium         : 4772 (0x12A4)
  138. Format                                   : PGS
  139. Muxing mode                              : zlib
  140. Codec ID                                 : S_HDMV/PGS
  141. Codec ID/Info                            : Picture based subtitle format used on BDs/HD-DVDs
  142. Duration                                 : 2 h 12 min
  143. Bit rate                                 : 13.5 kb/s
  144. Count of elements                        : 1410
  145. Stream size                              : 12.8 MiB (0%)
  146. Language                                 : French
  147. Default                                  : No
  148. Forced                                   : No
  149. Original source medium                   : Blu-ray
  150. Text #5
  151. ID                                       : 9
  152. ID in the original source medium         : 4773 (0x12A5)
  153. Format                                   : PGS
  154. Muxing mode                              : zlib
  155. Codec ID                                 : S_HDMV/PGS
  156. Codec ID/Info                            : Picture based subtitle format used on BDs/HD-DVDs
  157. Duration                                 : 2 h 12 min
  158. Bit rate                                 : 15.4 kb/s
  159. Count of elements                        : 1448
  160. Stream size                              : 14.6 MiB (0%)
  161. Language                                 : Italian
  162. Default                                  : No
  163. Forced                                   : No
  164. Original source medium                   : Blu-ray
  165. Menu
  166. 00:00:00.000                             : en:Chapter 01
  167. 00:09:22.311                             : en:Chapter 02
  168. 00:18:48.001                             : en:Chapter 03
  169. 00:24:29.551                             : en:Chapter 04
  170. 00:34:05.877                             : en:Chapter 05
  171. 00:40:30.136                             : en:Chapter 06
  172. 00:47:24.216                             : en:Chapter 07
  173. 00:58:32.634                             : en:Chapter 08
  174. 01:04:59.312                             : en:Chapter 09
  175. 01:12:03.485                             : en:Chapter 10
  176. 01:18:21.530                             : en:Chapter 11
  177. 01:24:56.257                             : en:Chapter 12
  178. 01:32:42.640                             : en:Chapter 13
  179. 01:42:44.449                             : en:Chapter 14
  180. 01:51:41.986                             : en:Chapter 15
  181. 02:03:44.291                             : en:Chapter 16
复制代码







                                       
                                       

                                       
                                       
                                       





回复

使用道具 举报

蓝光币
3152
发表于 2021-10-27 01:03:56 | 显示全部楼层

感谢楼主的无私分享!要想蓝光电影网好 就靠你我他
回复 支持 反对

使用道具 举报

蓝光币
179
发表于 2021-10-27 08:10:59 | 显示全部楼层

楼主太厉害了!楼主,电影应该很好看我觉得蓝光电影网真是个好地方!
回复 支持 反对

使用道具 举报

蓝光币
23
发表于 2021-10-29 11:54:05 | 显示全部楼层
楼主发贴辛苦了,谢谢楼主分享!我觉得蓝光电影网是注册对了!
回复 支持 反对

使用道具 举报

懒得打字嘛,点击右侧快捷回复 【右侧内容,后台自定义】
您需要登录后才可以回帖 登录 | 立即加入

本版积分规则

Archiver|小黑屋| 蓝光电影网 |网站地图

Copyright © 2021 Comsenz Inc. Powered by 蓝光电影网

蓝光电影网

本站内容由用户自主分享和转载自互联网,转载目的在于传递更多信息,并不代表本网赞同其观点和对其真实性负责。

如有侵权、违反国家法律政策行为,请联系我们,我们会第一时间及时清除和处理!

举报反馈邮箱:[email protected]

快速回复 返回顶部 返回列表