找回密码

蓝光电影网

查看: 210|回复: 0

[动作] 怒火 Raging.Fire.2021.CHINESE.1080p.WEBRip.x264-VXT 2.40GB

[复制链接]
蓝光币
733
发表于 2021-10-26 22:42:03 | 显示全部楼层 |阅读模式


◎译  名 怒火·重案/Crossfire/Raging Fire/怒火战/怒火重案/火拼
◎片  名 怒火
◎年  代 2021
◎产  地 中国香港,中国大陆
◎类  别 行动 / 犯罪
◎语  言 粤语,汉语普通话
◎上映日期 2021-07-30(中国大陆) / 2021-08-19(中国香港)
◎豆瓣评分 7.3/10 from 328386 users
◎豆瓣链接 https://movie.douban.com/subject/30174085/
◎片  长 128分钟
◎导  演 陈木胜 Benny Chan
◎编  剧 陈木胜 Benny Chan / 凌伟骏 Ryan Wai-Chun Ling / 唐耀良 Yiu-leung Tong
◎主  演 甄子丹 Donnie Yen
       谢霆锋 Nicholas Tse
       秦岚 Lan Qin
       谭耀文 Patrick Tam
       黄德斌 Tak-bun Wong
       吴浩康 Deep Ng
       何珮瑜 Jeana Ho
       杨天宇 Angus Yeung
       汤君慈 Bruce Tong
       麦亨利 Henry Mai
       喻亢 Kang Yu
       张文杰 Man Kit Cheung
       胡子彤 Tony Tsz-Tung Wu
       吕良伟 Ray Lui
       任达华 Simon Yam
       袁富华 Fu-wah Yuen
       林国斌 Ben Lam
       卢惠光 Ken Lo
       陈家乐 Carlos Chan
       张国强 Kwok Keung Cheung
       汤怡 Kathy Tong
       高战 Chris Collins
       辛格·哈提汗·比托 Singh Hartihan Bitto
       克里斯·柯林斯 K.C. Collins
       郭政鸿 Jing-hung Kwok
       麦长青 Cheung-Ching Mak
◎标  签 警匪 | 中国香港 | 行动 | 犯罪 | 枪战 | 2021 | 悬疑 | 中国大陆
◎简  介


  重案组布网围歼国际毒枭,忽然杀出一组蒙面悍匪“黑吃黑”,更冷血屠杀众差人。重案组督察张崇邦(甄子丹 饰)亲睹战友被杀,深入清查发现,悍匪首领竟是昔日战友邱刚敖(谢霆锋 饰)。本来敖也曾是警队明日之星,而将敖推向罪行深渊的人,却正是邦。宿号令二人再次纠缠,一切恩怨张崇邦若何作出了断……
  1. Video
  2. ID                                       : 1
  3. Format                                   : AVC
  4. Format/Info                              : Advanced Video Codec
  5. Format profile                           : [email protected]
  6. Format settings                          : CABAC / 4 Ref Frames
  7. Format settings, CABAC                   : Yes
  8. Format settings, Reference frames        : 4 frames
  9. Codec ID                                 : avc1
  10. Codec ID/Info                            : Advanced Video Coding
  11. Duration                                 : 2 h 6 min
  12. Bit rate                                 : 2 500 kb/s
  13. Width                                    : 1 920 pixels
  14. Height                                   : 800 pixels
  15. Display aspect ratio                     : 2.40:1
  16. Frame rate mode                          : Constant
  17. Frame rate                               : 24.000 FPS
  18. Color space                              : YUV
  19. Chroma subsampling                       : 4:2:0
  20. Bit depth                                : 8 bits
  21. Scan type                                : Progressive
  22. Bits/(Pixel*Frame)                       : 0.068
  23. Stream size                              : 2.20 GiB (92%)
  24. Writing library                          : x264 core 152 r2851M ba24899
  25. Encoding settings                        : cabac=1 / ref=4 / deblock=1:-1:-1 / analyse=0x3:0x113 / me=umh / subme=9 / psy=1 / psy_rd=1.00:0.15 / mixed_ref=1 / me_range=24 / chroma_me=1 / trellis=2 / 8x8dct=1 / cqm=0 / deadzone=21,11 / fast_pskip=1 / chroma_qp_offset=-3 / threads=16 / lookahead_threads=4 / sliced_threads=0 / nr=0 / decimate=1 / interlaced=0 / bluray_compat=0 / constrained_intra=0 / bframes=3 / b_pyramid=2 / b_adapt=2 / b_bias=0 / direct=3 / weightb=1 / open_gop=0 / weightp=2 / keyint=250 / keyint_min=25 / scenecut=40 / intra_refresh=0 / rc_lookahead=50 / rc=2pass / mbtree=1 / bitrate=2500 / ratetol=1.0 / qcomp=0.60 / qpmin=0 / qpmax=69 / qpstep=4 / cplxblur=20.0 / qblur=0.5 / vbv_maxrate=31250 / vbv_bufsize=31250 / nal_hrd=none / filler=0 / ip_ratio=1.40 / aq=3:1.00
  26. Encoded date                             : UTC 2021-10-26 10:14:33
  27. Tagged date                              : UTC 2021-10-26 10:14:33
  28. Codec configuration box                  : avcC
  29. Audio
  30. ID                                       : 2
  31. Format                                   : AAC LC
  32. Format/Info                              : Advanced Audio Codec Low Complexity
  33. Codec ID                                 : mp4a-40-2
  34. Duration                                 : 2 h 6 min
  35. Bit rate mode                            : Constant
  36. Bit rate                                 : 224 kb/s
  37. Channel(s)                               : 6 channels
  38. Channel layout                           : C L R Ls Rs LFE
  39. Sampling rate                            : 48.0 kHz
  40. Frame rate                               : 46.875 FPS (1024 SPF)
  41. Compression mode                         : Lossy
  42. Stream size                              : 202 MiB (8%)
  43. Language                                 : Chinese
  44. Default                                  : Yes
  45. Alternate group                          : 1
  46. Encoded date                             : UTC 2021-10-26 10:14:33
  47. Tagged date                              : UTC 2021-10-26 10:14:33
复制代码






                                       
                                       

                                       
                                       
                                       




回复

使用道具 举报

懒得打字嘛,点击右侧快捷回复 【右侧内容,后台自定义】
您需要登录后才可以回帖 登录 | 立即加入

本版积分规则

Archiver|小黑屋| 蓝光电影网 |网站地图

Copyright © 2021 Comsenz Inc. Powered by 蓝光电影网

蓝光电影网

本站内容由用户自主分享和转载自互联网,转载目的在于传递更多信息,并不代表本网赞同其观点和对其真实性负责。

如有侵权、违反国家法律政策行为,请联系我们,我们会第一时间及时清除和处理!

举报反馈邮箱:[email protected]

快速回复 返回顶部 返回列表