找回密码

蓝光电影网

查看: 345|回复: 3

[惊悚] 屏住呼吸2/别呼吸2 Dont.Breathe.2.2021.1080p.BluRay.x264.DTS-HD.MA.7.1-FGT 10.66GB

[复制链接]
蓝光币
682
发表于 2021-10-26 23:04:15 | 显示全部楼层 |阅读模式


◎译  名 屏住呼吸2/别呼吸2/临时停止呼吸2(台)/禁室杀戮2(港)
◎片  名 Don't Breathe 2
◎年  代 2021
◎产  地 美国,塞尔维亚
◎类  别 惊悚 / 可骇
◎语  言 英语
◎上映日期 2021-08-13(美国)
◎豆瓣评分 6.5/10 from 18130 users
◎豆瓣链接 https://movie.douban.com/subject/26915921/
◎片  长 98分钟
◎导  演 罗多·赛亚格斯 Rodo Sayagues
◎编  剧 费德·阿尔瓦雷兹 Fede Alvarez / 罗多·赛亚格斯 Rodo Sayagues
◎主  演 史蒂芬·朗 Stephen Lang
       布兰登·萨克斯顿 Brendan Sexton III
       马德琳·格雷斯 Madelyn Grace
       罗奇·威廉姆斯 Rocci Williams
       斯蒂芬妮·阿西拉 Stephanie Arcila
       鲍比·斯科菲尔德 Bobby Schofield
       戴安娜·巴尼科娃 Diaana Babnicova
       亚当·扬 Adam Young
       克里斯蒂安·泽吉亚 Christian Zagia
       罗恩·罗格尔 Ron Rogell
       菲奥娜·奥肖内西 Fiona O'Shaughnessy
◎标  签 惊悚 | 犯罪 | 美国 | 悬疑 | 2021 | 可骇 | 美国电影 | 电影
◎简  介


  《屏住呼吸1》编剧罗多·赛亚格斯执导,并同前作导演费德·阿尔瓦雷兹一路写剧本,史蒂芬·朗、罗奇·威廉姆斯、斯蒂芬妮·阿西拉、鲍比·斯科菲尔德、亚当·扬等主演。
  
  故事发生在最初致命的入室抢劫以后的几年,眼盲的退伍老兵诺曼过着安静的生活,直到曩昔的罪行起头找上他。
  1. Video
  2. ID                                       : 1
  3. Format                                   : AVC
  4. Format/Info                              : Advanced Video Codec
  5. Format profile                           : [email protected]
  6. Format settings                          : CABAC / 4 Ref Frames
  7. Format settings, CABAC                   : Yes
  8. Format settings, Reference frames        : 4 frames
  9. Codec ID                                 : V_MPEG4/ISO/AVC
  10. Duration                                 : 1 h 38 min
  11. Bit rate                                 : 11.5 Mb/s
  12. Width                                    : 1 920 pixels
  13. Height                                   : 804 pixels
  14. Display aspect ratio                     : 2.40:1
  15. Frame rate mode                          : Constant
  16. Frame rate                               : 23.976 (24000/1001/189150) FPS
  17. Color space                              : YUV
  18. Chroma subsampling                       : 4:2:0
  19. Bit depth                                : 8 bits
  20. Scan type                                : Progressive
  21. Bits/(Pixel*Frame)                       : 0.311
  22. Stream size                              : 7.89 GiB (74%)
  23. Writing library                          : x264 core 148 r2795M aaa9aa8
  24. Encoding settings                        : cabac=1 / ref=4 / deblock=1:-2:-2 / analyse=0x3:0x113 / me=umh / subme=9 / psy=1 / psy_rd=1.00:0.15 / mixed_ref=1 / me_range=16 / chroma_me=1 / trellis=2 / 8x8dct=1 / cqm=0 / deadzone=21,11 / fast_pskip=1 / chroma_qp_offset=-3 / threads=72 / lookahead_threads=3 / sliced_threads=0 / nr=0 / decimate=1 / interlaced=0 / bluray_compat=0 / constrained_intra=0 / bframes=3 / b_pyramid=2 / b_adapt=1 / b_bias=0 / direct=3 / weightb=1 / open_gop=0 / weightp=2 / keyint=250 / keyint_min=25 / scenecut=40 / intra_refresh=0 / rc_lookahead=50 / rc=2pass / mbtree=1 / bitrate=11500 / ratetol=1.0 / qcomp=0.60 / qpmin=0 / qpmax=69 / qpstep=4 / cplxblur=20.0 / qblur=0.5 / vbv_maxrate=31250 / vbv_bufsize=31250 / nal_hrd=none / filler=0 / ip_ratio=1.40 / aq=1:1.00
  25. Language                                 : English
  26. Default                                  : Yes
  27. Forced                                   : No
  28. Audio
  29. ID                                       : 2
  30. Format                                   : DTS XLL
  31. Format/Info                              : Digital Theater Systems
  32. Commercial name                          : DTS-HD Master Audio
  33. Codec ID                                 : A_DTS
  34. Duration                                 : 1 h 38 min
  35. Bit rate mode                            : Variable
  36. Bit rate                                 : 3 981 kb/s
  37. Channel(s)                               : 8 channels
  38. Channel layout                           : C L R LFE Lb Rb Lss Rss
  39. Sampling rate                            : 48.0 kHz
  40. Frame rate                               : 93.750 FPS (512 SPF)
  41. Bit depth                                : 24 bits
  42. Compression mode                         : Lossless
  43. Stream size                              : 2.73 GiB (26%)
  44. Title                                    : DTS-HD MA 7.1
  45. Language                                 : English
  46. Default                                  : No
  47. Forced                                   : No
  48. Text #1
  49. ID                                       : 3
  50. Format                                   : UTF-8
  51. Codec ID                                 : S_TEXT/UTF8
  52. Codec ID/Info                            : UTF-8 Plain Text
  53. Duration                                 : 1 h 26 min
  54. Bit rate                                 : 15 b/s
  55. Count of elements                        : 467
  56. Stream size                              : 9.84 KiB (0%)
  57. Title                                    : SRT
  58. Language                                 : English
  59. Default                                  : Yes
  60. Forced                                   : No
  61. Text #2
  62. ID                                       : 4
  63. ID in the original source medium         : 4608 (0x1200)
  64. Format                                   : PGS
  65. Muxing mode                              : zlib
  66. Codec ID                                 : S_HDMV/PGS
  67. Codec ID/Info                            : Picture based subtitle format used on BDs/HD-DVDs
  68. Duration                                 : 1 h 30 min
  69. Bit rate                                 : 14.9 kb/s
  70. Count of elements                        : 1466
  71. Stream size                              : 9.67 MiB (0%)
  72. Language                                 : English
  73. Default                                  : No
  74. Forced                                   : No
  75. Original source medium                   : Blu-ray
  76. Text #3
  77. ID                                       : 5
  78. ID in the original source medium         : 4609 (0x1201)
  79. Format                                   : PGS
  80. Muxing mode                              : zlib
  81. Codec ID                                 : S_HDMV/PGS
  82. Codec ID/Info                            : Picture based subtitle format used on BDs/HD-DVDs
  83. Duration                                 : 1 h 26 min
  84. Bit rate                                 : 9 894 b/s
  85. Count of elements                        : 986
  86. Stream size                              : 6.15 MiB (0%)
  87. Language                                 : English
  88. Default                                  : No
  89. Forced                                   : No
  90. Original source medium                   : Blu-ray
  91. Text #4
  92. ID                                       : 6
  93. ID in the original source medium         : 4610 (0x1202)
  94. Format                                   : PGS
  95. Muxing mode                              : zlib
  96. Codec ID                                 : S_HDMV/PGS
  97. Codec ID/Info                            : Picture based subtitle format used on BDs/HD-DVDs
  98. Duration                                 : 1 h 36 min
  99. Bit rate                                 : 7 679 b/s
  100. Count of elements                        : 918
  101. Stream size                              : 5.29 MiB (0%)
  102. Language                                 : Chinese
  103. Default                                  : No
  104. Forced                                   : No
  105. Original source medium                   : Blu-ray
  106. Text #5
  107. ID                                       : 7
  108. ID in the original source medium         : 4611 (0x1203)
  109. Format                                   : PGS
  110. Muxing mode                              : zlib
  111. Codec ID                                 : S_HDMV/PGS
  112. Codec ID/Info                            : Picture based subtitle format used on BDs/HD-DVDs
  113. Duration                                 : 1 h 36 min
  114. Bit rate                                 : 7 595 b/s
  115. Count of elements                        : 914
  116. Stream size                              : 5.23 MiB (0%)
  117. Language                                 : Chinese
  118. Default                                  : No
  119. Forced                                   : No
  120. Original source medium                   : Blu-ray
  121. Text #6
  122. ID                                       : 8
  123. ID in the original source medium         : 4612 (0x1204)
  124. Format                                   : PGS
  125. Muxing mode                              : zlib
  126. Codec ID                                 : S_HDMV/PGS
  127. Codec ID/Info                            : Picture based subtitle format used on BDs/HD-DVDs
  128. Duration                                 : 1 h 36 min
  129. Bit rate                                 : 7 190 b/s
  130. Count of elements                        : 916
  131. Stream size                              : 4.95 MiB (0%)
  132. Language                                 : Chinese
  133. Default                                  : No
  134. Forced                                   : No
  135. Original source medium                   : Blu-ray
  136. Text #7
  137. ID                                       : 9
  138. ID in the original source medium         : 4613 (0x1205)
  139. Format                                   : PGS
  140. Muxing mode                              : zlib
  141. Codec ID                                 : S_HDMV/PGS
  142. Codec ID/Info                            : Picture based subtitle format used on BDs/HD-DVDs
  143. Duration                                 : 1 h 36 min
  144. Bit rate                                 : 8 093 b/s
  145. Count of elements                        : 846
  146. Stream size                              : 5.57 MiB (0%)
  147. Language                                 : French
  148. Default                                  : No
  149. Forced                                   : No
  150. Original source medium                   : Blu-ray
  151. Text #8
  152. ID                                       : 10
  153. ID in the original source medium         : 4614 (0x1206)
  154. Format                                   : PGS
  155. Muxing mode                              : zlib
  156. Codec ID                                 : S_HDMV/PGS
  157. Codec ID/Info                            : Picture based subtitle format used on BDs/HD-DVDs
  158. Duration                                 : 1 h 36 min
  159. Bit rate                                 : 9 795 b/s
  160. Count of elements                        : 906
  161. Stream size                              : 6.74 MiB (0%)
  162. Language                                 : Indonesian
  163. Default                                  : No
  164. Forced                                   : No
  165. Original source medium                   : Blu-ray
  166. Text #9
  167. ID                                       : 11
  168. ID in the original source medium         : 4615 (0x1207)
  169. Format                                   : PGS
  170. Muxing mode                              : zlib
  171. Codec ID                                 : S_HDMV/PGS
  172. Codec ID/Info                            : Picture based subtitle format used on BDs/HD-DVDs
  173. Duration                                 : 1 h 36 min
  174. Bit rate                                 : 7 309 b/s
  175. Count of elements                        : 924
  176. Stream size                              : 5.03 MiB (0%)
  177. Language                                 : Korean
  178. Default                                  : No
  179. Forced                                   : No
  180. Original source medium                   : Blu-ray
  181. Text #10
  182. ID                                       : 12
  183. ID in the original source medium         : 4616 (0x1208)
  184. Format                                   : PGS
  185. Muxing mode                              : zlib
  186. Codec ID                                 : S_HDMV/PGS
  187. Codec ID/Info                            : Picture based subtitle format used on BDs/HD-DVDs
  188. Duration                                 : 1 h 36 min
  189. Bit rate                                 : 10.4 kb/s
  190. Count of elements                        : 910
  191. Stream size                              : 7.16 MiB (0%)
  192. Language                                 : Malay
  193. Default                                  : No
  194. Forced                                   : No
  195. Original source medium                   : Blu-ray
  196. Text #11
  197. ID                                       : 13
  198. ID in the original source medium         : 4617 (0x1209)
  199. Format                                   : PGS
  200. Muxing mode                              : zlib
  201. Codec ID                                 : S_HDMV/PGS
  202. Codec ID/Info                            : Picture based subtitle format used on BDs/HD-DVDs
  203. Duration                                 : 1 h 36 min
  204. Bit rate                                 : 9 196 b/s
  205. Count of elements                        : 890
  206. Stream size                              : 6.33 MiB (0%)
  207. Language                                 : Portuguese
  208. Default                                  : No
  209. Forced                                   : No
  210. Original source medium                   : Blu-ray
  211. Text #12
  212. ID                                       : 14
  213. ID in the original source medium         : 4617 (0x1209)
  214. Format                                   : PGS
  215. Muxing mode                              : zlib
  216. Codec ID                                 : S_HDMV/PGS
  217. Codec ID/Info                            : Picture based subtitle format used on BDs/HD-DVDs
  218. Duration                                 : 1 h 36 min
  219. Bit rate                                 : 85 b/s
  220. Count of elements                        : 8
  221. Stream size                              : 60.0 KiB (0%)
  222. Language                                 : Portuguese
  223. Default                                  : No
  224. Forced                                   : No
  225. Original source medium                   : Blu-ray
  226. Text #13
  227. ID                                       : 15
  228. ID in the original source medium         : 4618 (0x120A)
  229. Format                                   : PGS
  230. Muxing mode                              : zlib
  231. Codec ID                                 : S_HDMV/PGS
  232. Codec ID/Info                            : Picture based subtitle format used on BDs/HD-DVDs
  233. Duration                                 : 1 h 36 min
  234. Bit rate                                 : 9 040 b/s
  235. Count of elements                        : 896
  236. Stream size                              : 6.22 MiB (0%)
  237. Language                                 : Spanish
  238. Default                                  : No
  239. Forced                                   : No
  240. Original source medium                   : Blu-ray
  241. Text #14
  242. ID                                       : 16
  243. ID in the original source medium         : 4618 (0x120A)
  244. Format                                   : PGS
  245. Muxing mode                              : zlib
  246. Codec ID                                 : S_HDMV/PGS
  247. Codec ID/Info                            : Picture based subtitle format used on BDs/HD-DVDs
  248. Duration                                 : 1 h 36 min
  249. Bit rate                                 : 55 b/s
  250. Count of elements                        : 4
  251. Stream size                              : 38.8 KiB (0%)
  252. Language                                 : Spanish
  253. Default                                  : No
  254. Forced                                   : No
  255. Original source medium                   : Blu-ray
  256. Text #15
  257. ID                                       : 17
  258. ID in the original source medium         : 4619 (0x120B)
  259. Format                                   : PGS
  260. Muxing mode                              : zlib
  261. Codec ID                                 : S_HDMV/PGS
  262. Codec ID/Info                            : Picture based subtitle format used on BDs/HD-DVDs
  263. Duration                                 : 1 h 36 min
  264. Bit rate                                 : 8 157 b/s
  265. Count of elements                        : 914
  266. Stream size                              : 5.62 MiB (0%)
  267. Language                                 : Thai
  268. Default                                  : No
  269. Forced                                   : No
  270. Original source medium                   : Blu-ray
  271. Text #16
  272. ID                                       : 18
  273. ID in the original source medium         : 4620 (0x120C)
  274. Format                                   : PGS
  275. Muxing mode                              : zlib
  276. Codec ID                                 : S_HDMV/PGS
  277. Codec ID/Info                            : Picture based subtitle format used on BDs/HD-DVDs
  278. Duration                                 : 1 h 36 min
  279. Bit rate                                 : 71 b/s
  280. Count of elements                        : 6
  281. Stream size                              : 50.6 KiB (0%)
  282. Language                                 : French
  283. Default                                  : No
  284. Forced                                   : No
  285. Original source medium                   : Blu-ray
  286. Text #17
  287. ID                                       : 19
  288. ID in the original source medium         : 4620 (0x120C)
  289. Format                                   : PGS
  290. Muxing mode                              : zlib
  291. Codec ID                                 : S_HDMV/PGS
  292. Codec ID/Info                            : Picture based subtitle format used on BDs/HD-DVDs
  293. Duration                                 : 1 h 36 min
  294. Bit rate                                 : 71 b/s
  295. Count of elements                        : 6
  296. Stream size                              : 50.6 KiB (0%)
  297. Language                                 : French
  298. Default                                  : No
  299. Forced                                   : No
  300. Original source medium                   : Blu-ray
  301. Menu
  302. 00:00:00.000                             : en:Chapter 01
  303. 00:04:06.371                             : en:Chapter 02
  304. 00:08:39.352                             : en:Chapter 03
  305. 00:13:10.790                             : en:Chapter 04
  306. 00:19:12.734                             : en:Chapter 05
  307. 00:24:10.532                             : en:Chapter 06
  308. 00:28:03.807                             : en:Chapter 07
  309. 00:31:33.683                             : en:Chapter 08
  310. 00:37:15.107                             : en:Chapter 09
  311. 00:41:25.649                             : en:Chapter 10
  312. 00:45:21.927                             : en:Chapter 11
  313. 00:50:36.992                             : en:Chapter 12
  314. 00:55:42.797                             : en:Chapter 13
  315. 01:02:19.652                             : en:Chapter 14
  316. 01:09:26.537                             : en:Chapter 15
  317. 01:18:19.986                             : en:Chapter 16
复制代码






                                       
                                       

                                       
                                       
                                       




回复

使用道具 举报

蓝光币
2
发表于 2021-10-26 23:32:26 | 显示全部楼层
楼主发贴辛苦了,谢谢楼主分享!我觉得蓝光电影网是注册对了!
回复 支持 反对

使用道具 举报

蓝光币
291
发表于 2021-10-27 02:36:29 | 显示全部楼层
楼主发贴辛苦了,谢谢楼主分享!我觉得蓝光电影网是注册对了!
回复 支持 反对

使用道具 举报

蓝光币
236
发表于 2021-10-27 05:13:24 | 显示全部楼层
楼主发贴辛苦了,谢谢楼主分享!我觉得蓝光电影网是注册对了!
回复 支持 反对

使用道具 举报

懒得打字嘛,点击右侧快捷回复 【右侧内容,后台自定义】
您需要登录后才可以回帖 登录 | 立即加入

本版积分规则

Archiver|小黑屋| 蓝光电影网 |网站地图

Copyright © 2021 Comsenz Inc. Powered by 蓝光电影网

蓝光电影网

本站内容由用户自主分享和转载自互联网,转载目的在于传递更多信息,并不代表本网赞同其观点和对其真实性负责。

如有侵权、违反国家法律政策行为,请联系我们,我们会第一时间及时清除和处理!

举报反馈邮箱:[email protected]

快速回复 返回顶部 返回列表