找回密码

蓝光电影网

查看: 366|回复: 3

[10bit.SDR] 黑夜传说2:进化/决战异世界2 Underworld.Evolution.2006.2160p.BluRay.x265.10bit.SDR.DTS-HD.MA.TrueHD.7.1.Atmos-SWTYBLZ 32.43GB

[复制链接]
蓝光币
682
发表于 2021-10-26 23:26:12 | 显示全部楼层 |阅读模式


◎译  名 黑夜传闻2:进化/决战异天下2(台)/妖夜寻狼之魔间叛徒(港)
◎片  名 Underworld: Evolution
◎年  代 2006
◎产  地 美国,加拿大
◎类  别 行动 / 惊悚 / 奇异
◎语  言 英语,法语,匈牙利语
◎上映日期 2006-01-20(美国)
◎豆瓣评分 7.4/10 from 67795 users
◎豆瓣链接 https://movie.douban.com/subject/1422920/
◎片  长 106 分钟
◎导  演 伦·怀斯曼 Len Wiseman
◎编  剧 Danny McBride Danny McBride / 伦·怀斯曼 Len Wiseman / 凯文·格雷维奥斯 Kevin Grevioux / 丹尼·麦克布莱德 Danny McBride
◎主  演 凯特·贝金赛尔 Kate Beckinsale
       斯科特·斯比德曼 Scott Speedman
       托尼·库兰 Tony Curran
       德里克·雅各比 Derek Jacobi
       比尔·奈伊 Bill Nighy
       斯蒂文·麦金托什 Steven Mackintosh
       山恩·布罗利 Shane Brolly
       布莱恩·斯蒂尔 Brian Steele
       兹塔·格罗格 Zita G?r?g
       约翰曼 John Mann
       麦克·辛 Michael Sheen
       索菲娅·迈尔斯 Sophia Myles
       理查德·赛特伦 Richard Cetrone
       Mike Mukatis Mike Mukatis
        Christine Danielle
       Kaja Gjesdal Kaja Gjesdal
       Alexander Grant Alexander Grant
        Monica Hamburg
       莉莉·莫·辛 Lily Mo Sheen
       安德烈·卡瓦德斯 Andrew Kavadas
       Kayla Levins Kayla Levins
       Raoul Ganeev Raoul Ganeev
       丹尼·帕皮诺 Dany Papineau
       肖恩·罗格森 Sean Rogerson
       阿德里安·霍夫 Adrian Hough
       Kurt Carley Kurt Carley
       麦克·冈瑟 Mike Gunther
◎标  签 吸血鬼 | 魔幻 | 美国 | 行动 | 狼人 | 科幻 | 奇异 | 美国电影
◎简  介


  狼人和吸血鬼之间的大战还在继续。当麦克尔(斯科特?斯比德曼 Scott Speedman 饰)和西丽妮(凯特?贝金赛尔 Kate Beckinsale 饰)还在诡计以自己亏弱的才能阻止这场大战时,诡计家们的佳构又诞生了――狼人和吸血鬼融合的具有超强才能的种族――“血族”。马克思(托尼?库兰 Tony Curran 饰)即是即是这个种族的第二代。他杀死了父亲,夺取了密钥和西丽妮的记忆,救出了一个是狼人、一个是吸血鬼的被软禁千年的孪生兄弟,诡计一统狼人、吸血鬼和人类三大种族。
  
  麦克尔和西丽妮这对情报酬了爱,他们必须挫败马克思的诡计、打败软禁千年的孪生兄弟……
◎获奖情况
  第15届MTV电影奖 ?(2006)
  MTV电影奖最好豪杰形象(提名) 凯特·贝金赛尔
  1. Video
  2. ID                                       : 1
  3. Format                                   : HEVC
  4. Format/Info                              : High Efficiency Video Coding
  5. Format profile                           : Main [email protected]@High
  6. Codec ID                                 : V_MPEGH/ISO/HEVC
  7. Duration                                 : 1 h 46 min
  8. Bit rate                                 : 33.4 Mb/s
  9. Width                                    : 3 840 pixels
  10. Height                                   : 1 600 pixels
  11. Display aspect ratio                     : 2.40:1
  12. Frame rate mode                          : Constant
  13. Frame rate                               : 23.976 (24000/1001/189150) FPS
  14. Color space                              : YUV
  15. Chroma subsampling                       : 4:2:0
  16. Bit depth                                : 10 bits
  17. Bits/(Pixel*Frame)                       : 0.227
  18. Stream size                              : 24.8 GiB (77%)
  19. Writing library                          : x265 3.0ed72af837053:[Windows][GCC 8.2.0][64 bit] 10bit
  20. Encoding settings                        : cpuid=1111039 / frame-threads=6 / numa-pools=40 / wpp / no-pmode / no-pme / no-psnr / no-ssim / log-level=2 / input-csp=1 / input-res=3840x1600 / interlace=0 / total-frames=153048 / level-idc=51 / high-tier=1 / uhd-bd=0 / ref=3 / no-allow-non-conformance / repeat-headers / annexb / aud / hrd / info / hash=0 / no-temporal-layers / no-open-gop / min-keyint=1 / keyint=24 / gop-lookahead=0 / bframes=4 / b-adapt=2 / b-pyramid / bframe-bias=0 / rc-lookahead=25 / lookahead-slices=4 / scenecut=40 / radl=0 / no-splice / no-intra-refresh / ctu=64 / min-cu-size=8 / no-rect / no-amp / max-tu-size=32 / tu-inter-depth=1 / tu-intra-depth=1 / limit-tu=0 / rdoq-level=0 / dynamic-rd=0.00 / no-ssim-rd / signhide / no-tskip / nr-intra=0 / nr-inter=0 / no-constrained-intra / strong-intra-smoothing / max-merge=2 / limit-refs=3 / no-limit-modes / me=1 / subme=2 / merange=57 / temporal-mvp / weightp / no-weightb / no-analyze-src-pics / deblock=0:0 / no-sao / no-sao-non-deblock / rd=3 / no-early-skip / rskip / no-fast-intra / no-tskip-fast / no-cu-lossless / no-b-intra / no-splitrd-skip / rdpenalty=0 / psy-rd=2.00 / psy-rdoq=0.00 / no-rd-refine / no-lossless / cbqpoffs=0 / crqpoffs=0 / rc=crf / crf=16.0 / qcomp=0.60 / qpstep=4 / stats-write=0 / stats-read=0 / vbv-maxrate=160000 / vbv-bufsize=160000 / vbv-init=0.9 / crf-max=0.0 / crf-min=0.0 / ipratio=1.40 / pbratio=1.30 / aq-mode=1 / aq-strength=1.00 / cutree / zone-count=0 / no-strict-cbr / qg-size=32 / no-rc-grain / qpmax=69 / qpmin=0 / no-const-vbv / sar=1 / overscan=0 / videoformat=5 / range=0 / colorprim=2 / transfer=2 / colormatrix=2 / chromaloc=0 / display-window=0 / max-cll=0,0 / min-luma=0 / max-luma=1023 / log2-max-poc-lsb=8 / vui-timing-info / vui-hrd-info / slices=1 / opt-qp-pps / opt-ref-list-length-pps / no-multi-pass-opt-rps / scenecut-bias=0.05 / no-opt-cu-delta-qp / no-aq-motion / no-hdr / no-hdr-opt / no-dhdr10-opt / no-idr-recovery-sei / analysis-reuse-level=5 / scale-factor=0 / refine-intra=0 / refine-inter=0 / refine-mv=0 / refine-ctu-distortion=0 / no-limit-sao / ctu-info=0 / no-lowpass-dct / refine-analysis-type=0 / copy-pic=1 / max-ausize-factor=1.0 / no-dynamic-refine / no-single-sei / no-hevc-aq / qp-adaptation-range=1.00
  21. Default                                  : Yes
  22. Forced                                   : No
  23. Audio #1
  24. ID                                       : 2
  25. ID in the original source medium         : 4352 (0x1100)
  26. Format                                   : MLP FBA 16-ch
  27. Format/Info                              : Meridian Lossless Packing FBA with 16-channel presentation
  28. Commercial name                          : Dolby TrueHD with Dolby Atmos
  29. Codec ID                                 : A_TRUEHD
  30. Duration                                 : 1 h 46 min
  31. Bit rate mode                            : Variable
  32. Bit rate                                 : 4 821 kb/s
  33. Maximum bit rate                         : 7 806 kb/s
  34. Channel(s)                               : 8 channels
  35. Channel layout                           : L R C LFE Ls Rs Lb Rb
  36. Sampling rate                            : 48.0 kHz
  37. Frame rate                               : 1 200.000 FPS (40 SPF)
  38. Bit depth                                : 24 bits
  39. Compression mode                         : Lossless
  40. Stream size                              : 3.58 GiB (11%)
  41. Title                                    : TrueHD 7.1 Atmos
  42. Language                                 : English
  43. Default                                  : Yes
  44. Forced                                   : No
  45. Original source medium                   : Blu-ray
  46. Number of dynamic objects                : 11
  47. Bed channel count                        : 1 channel
  48. Bed channel configuration                : LFE
  49. Audio #2
  50. ID                                       : 3
  51. Format                                   : DTS XLL
  52. Format/Info                              : Digital Theater Systems
  53. Commercial name                          : DTS-HD Master Audio
  54. Codec ID                                 : A_DTS
  55. Duration                                 : 1 h 46 min
  56. Bit rate mode                            : Variable
  57. Bit rate                                 : 4 388 kb/s
  58. Channel(s)                               : 8 channels
  59. Channel layout                           : C L R LFE Lb Rb Lss Rss
  60. Sampling rate                            : 48.0 kHz
  61. Frame rate                               : 93.750 FPS (512 SPF)
  62. Bit depth                                : 24 bits
  63. Compression mode                         : Lossless
  64. Stream size                              : 3.26 GiB (10%)
  65. Title                                    : DTS-HD MA 7.1
  66. Language                                 : English
  67. Default                                  : No
  68. Forced                                   : No
  69. Audio #3
  70. ID                                       : 4
  71. ID in the original source medium         : 4352 (0x1100)
  72. Format                                   : AC-3
  73. Format/Info                              : Audio Coding 3
  74. Commercial name                          : Dolby Digital
  75. Codec ID                                 : A_AC3
  76. Duration                                 : 1 h 46 min
  77. Bit rate mode                            : Constant
  78. Bit rate                                 : 640 kb/s
  79. Channel(s)                               : 6 channels
  80. Channel layout                           : L R C LFE Ls Rs
  81. Sampling rate                            : 48.0 kHz
  82. Frame rate                               : 31.250 FPS (1536 SPF)
  83. Compression mode                         : Lossy
  84. Stream size                              : 487 MiB (1%)
  85. Title                                    : DD 5.1
  86. Language                                 : English
  87. Service kind                             : Complete Main
  88. Default                                  : No
  89. Forced                                   : No
  90. Original source medium                   : Blu-ray
  91. Text #1
  92. ID                                       : 5
  93. Format                                   : UTF-8
  94. Codec ID                                 : S_TEXT/UTF8
  95. Codec ID/Info                            : UTF-8 Plain Text
  96. Duration                                 : 1 h 36 min
  97. Bit rate                                 : 21 b/s
  98. Count of elements                        : 511
  99. Stream size                              : 15.2 KiB (0%)
  100. Title                                    : SRT
  101. Language                                 : English
  102. Default                                  : Yes
  103. Forced                                   : No
  104. Text #2
  105. ID                                       : 6
  106. ID in the original source medium         : 4768 (0x12A0)
  107. Format                                   : PGS
  108. Muxing mode                              : zlib
  109. Codec ID                                 : S_HDMV/PGS
  110. Codec ID/Info                            : Picture based subtitle format used on BDs/HD-DVDs
  111. Duration                                 : 1 h 45 min
  112. Bit rate                                 : 17.1 kb/s
  113. Count of elements                        : 1647
  114. Stream size                              : 12.9 MiB (0%)
  115. Title                                    : SDH
  116. Language                                 : English
  117. Default                                  : No
  118. Forced                                   : No
  119. Original source medium                   : Blu-ray
  120. Text #3
  121. ID                                       : 7
  122. ID in the original source medium         : 4769 (0x12A1)
  123. Format                                   : PGS
  124. Muxing mode                              : zlib
  125. Codec ID                                 : S_HDMV/PGS
  126. Codec ID/Info                            : Picture based subtitle format used on BDs/HD-DVDs
  127. Duration                                 : 1 h 36 min
  128. Bit rate                                 : 12.9 kb/s
  129. Count of elements                        : 1082
  130. Stream size                              : 8.96 MiB (0%)
  131. Language                                 : English
  132. Default                                  : No
  133. Forced                                   : No
  134. Original source medium                   : Blu-ray
  135. Text #4
  136. ID                                       : 8
  137. ID in the original source medium         : 4770 (0x12A2)
  138. Format                                   : PGS
  139. Muxing mode                              : zlib
  140. Codec ID                                 : S_HDMV/PGS
  141. Codec ID/Info                            : Picture based subtitle format used on BDs/HD-DVDs
  142. Duration                                 : 1 h 45 min
  143. Bit rate                                 : 17.1 kb/s
  144. Count of elements                        : 1647
  145. Stream size                              : 12.9 MiB (0%)
  146. Title                                    : SDH
  147. Language                                 : English
  148. Default                                  : No
  149. Forced                                   : No
  150. Original source medium                   : Blu-ray
  151. Text #5
  152. ID                                       : 9
  153. ID in the original source medium         : 4771 (0x12A3)
  154. Format                                   : PGS
  155. Muxing mode                              : zlib
  156. Codec ID                                 : S_HDMV/PGS
  157. Codec ID/Info                            : Picture based subtitle format used on BDs/HD-DVDs
  158. Duration                                 : 1 h 36 min
  159. Bit rate                                 : 12.9 kb/s
  160. Count of elements                        : 1080
  161. Stream size                              : 8.96 MiB (0%)
  162. Language                                 : English
  163. Default                                  : No
  164. Forced                                   : No
  165. Original source medium                   : Blu-ray
  166. Text #6
  167. ID                                       : 10
  168. ID in the original source medium         : 4772 (0x12A4)
  169. Format                                   : PGS
  170. Muxing mode                              : zlib
  171. Codec ID                                 : S_HDMV/PGS
  172. Codec ID/Info                            : Picture based subtitle format used on BDs/HD-DVDs
  173. Duration                                 : 1 h 45 min
  174. Bit rate                                 : 11.9 kb/s
  175. Count of elements                        : 1122
  176. Stream size                              : 9.03 MiB (0%)
  177. Language                                 : Chinese
  178. Default                                  : No
  179. Forced                                   : No
  180. Original source medium                   : Blu-ray
  181. Text #7
  182. ID                                       : 11
  183. ID in the original source medium         : 4773 (0x12A5)
  184. Format                                   : PGS
  185. Muxing mode                              : zlib
  186. Codec ID                                 : S_HDMV/PGS
  187. Codec ID/Info                            : Picture based subtitle format used on BDs/HD-DVDs
  188. Duration                                 : 1 h 37 min
  189. Bit rate                                 : 9 520 b/s
  190. Count of elements                        : 1102
  191. Stream size                              : 6.66 MiB (0%)
  192. Language                                 : Chinese
  193. Default                                  : No
  194. Forced                                   : No
  195. Original source medium                   : Blu-ray
  196. Text #8
  197. ID                                       : 12
  198. ID in the original source medium         : 4774 (0x12A6)
  199. Format                                   : PGS
  200. Muxing mode                              : zlib
  201. Codec ID                                 : S_HDMV/PGS
  202. Codec ID/Info                            : Picture based subtitle format used on BDs/HD-DVDs
  203. Duration                                 : 1 h 45 min
  204. Bit rate                                 : 12.5 kb/s
  205. Count of elements                        : 926
  206. Stream size                              : 9.45 MiB (0%)
  207. Language                                 : Danish
  208. Default                                  : No
  209. Forced                                   : No
  210. Original source medium                   : Blu-ray
  211. Text #9
  212. ID                                       : 13
  213. ID in the original source medium         : 4775 (0x12A7)
  214. Format                                   : PGS
  215. Muxing mode                              : zlib
  216. Codec ID                                 : S_HDMV/PGS
  217. Codec ID/Info                            : Picture based subtitle format used on BDs/HD-DVDs
  218. Duration                                 : 1 h 37 min
  219. Bit rate                                 : 12.9 kb/s
  220. Count of elements                        : 1052
  221. Stream size                              : 9.06 MiB (0%)
  222. Language                                 : Dutch
  223. Default                                  : No
  224. Forced                                   : No
  225. Original source medium                   : Blu-ray
  226. Text #10
  227. ID                                       : 14
  228. ID in the original source medium         : 4776 (0x12A8)
  229. Format                                   : PGS
  230. Muxing mode                              : zlib
  231. Codec ID                                 : S_HDMV/PGS
  232. Codec ID/Info                            : Picture based subtitle format used on BDs/HD-DVDs
  233. Duration                                 : 1 h 45 min
  234. Bit rate                                 : 12.0 kb/s
  235. Count of elements                        : 908
  236. Stream size                              : 9.08 MiB (0%)
  237. Language                                 : Finnish
  238. Default                                  : No
  239. Forced                                   : No
  240. Original source medium                   : Blu-ray
  241. Text #11
  242. ID                                       : 15
  243. ID in the original source medium         : 4777 (0x12A9)
  244. Format                                   : PGS
  245. Muxing mode                              : zlib
  246. Codec ID                                 : S_HDMV/PGS
  247. Codec ID/Info                            : Picture based subtitle format used on BDs/HD-DVDs
  248. Duration                                 : 1 h 45 min
  249. Bit rate                                 : 12.0 kb/s
  250. Count of elements                        : 1118
  251. Stream size                              : 9.07 MiB (0%)
  252. Language                                 : French
  253. Default                                  : No
  254. Forced                                   : No
  255. Original source medium                   : Blu-ray
  256. Text #12
  257. ID                                       : 16
  258. ID in the original source medium         : 4777 (0x12A9)
  259. Format                                   : PGS
  260. Muxing mode                              : zlib
  261. Codec ID                                 : S_HDMV/PGS
  262. Codec ID/Info                            : Picture based subtitle format used on BDs/HD-DVDs
  263. Duration                                 : 1 h 45 min
  264. Bit rate                                 : 493 b/s
  265. Count of elements                        : 34
  266. Stream size                              : 383 KiB (0%)
  267. Language                                 : French
  268. Default                                  : No
  269. Forced                                   : No
  270. Original source medium                   : Blu-ray
  271. Text #13
  272. ID                                       : 17
  273. ID in the original source medium         : 4778 (0x12AA)
  274. Format                                   : PGS
  275. Muxing mode                              : zlib
  276. Codec ID                                 : S_HDMV/PGS
  277. Codec ID/Info                            : Picture based subtitle format used on BDs/HD-DVDs
  278. Duration                                 : 1 h 37 min
  279. Bit rate                                 : 13.7 kb/s
  280. Count of elements                        : 1078
  281. Stream size                              : 9.59 MiB (0%)
  282. Language                                 : German
  283. Default                                  : No
  284. Forced                                   : No
  285. Original source medium                   : Blu-ray
  286. Text #14
  287. ID                                       : 18
  288. ID in the original source medium         : 4778 (0x12AA)
  289. Format                                   : PGS
  290. Muxing mode                              : zlib
  291. Codec ID                                 : S_HDMV/PGS
  292. Codec ID/Info                            : Picture based subtitle format used on BDs/HD-DVDs
  293. Duration                                 : 1 h 0 min
  294. Bit rate                                 : 1 176 b/s
  295. Count of elements                        : 42
  296. Stream size                              : 518 KiB (0%)
  297. Language                                 : German
  298. Default                                  : No
  299. Forced                                   : No
  300. Original source medium                   : Blu-ray
  301. Text #15
  302. ID                                       : 19
  303. ID in the original source medium         : 4779 (0x12AB)
  304. Format                                   : PGS
  305. Muxing mode                              : zlib
  306. Codec ID                                 : S_HDMV/PGS
  307. Codec ID/Info                            : Picture based subtitle format used on BDs/HD-DVDs
  308. Duration                                 : 1 h 37 min
  309. Bit rate                                 : 10.1 kb/s
  310. Count of elements                        : 1128
  311. Stream size                              : 7.07 MiB (0%)
  312. Language                                 : Hebrew
  313. Default                                  : No
  314. Forced                                   : No
  315. Original source medium                   : Blu-ray
  316. Text #16
  317. ID                                       : 20
  318. ID in the original source medium         : 4780 (0x12AC)
  319. Format                                   : PGS
  320. Muxing mode                              : zlib
  321. Codec ID                                 : S_HDMV/PGS
  322. Codec ID/Info                            : Picture based subtitle format used on BDs/HD-DVDs
  323. Duration                                 : 1 h 45 min
  324. Bit rate                                 : 10.4 kb/s
  325. Count of elements                        : 1116
  326. Stream size                              : 7.86 MiB (0%)
  327. Language                                 : Hindi
  328. Default                                  : No
  329. Forced                                   : No
  330. Original source medium                   : Blu-ray
  331. Text #17
  332. ID                                       : 21
  333. ID in the original source medium         : 4781 (0x12AD)
  334. Format                                   : PGS
  335. Muxing mode                              : zlib
  336. Codec ID                                 : S_HDMV/PGS
  337. Codec ID/Info                            : Picture based subtitle format used on BDs/HD-DVDs
  338. Duration                                 : 1 h 45 min
  339. Bit rate                                 : 13.1 kb/s
  340. Count of elements                        : 1130
  341. Stream size                              : 9.88 MiB (0%)
  342. Language                                 : Italian
  343. Default                                  : No
  344. Forced                                   : No
  345. Original source medium                   : Blu-ray
  346. Text #18
  347. ID                                       : 22
  348. ID in the original source medium         : 4781 (0x12AD)
  349. Format                                   : PGS
  350. Muxing mode                              : zlib
  351. Codec ID                                 : S_HDMV/PGS
  352. Codec ID/Info                            : Picture based subtitle format used on BDs/HD-DVDs
  353. Duration                                 : 1 h 45 min
  354. Bit rate                                 : 526 b/s
  355. Count of elements                        : 44
  356. Stream size                              : 407 KiB (0%)
  357. Language                                 : Italian
  358. Default                                  : No
  359. Forced                                   : No
  360. Original source medium                   : Blu-ray
  361. Text #19
  362. ID                                       : 23
  363. ID in the original source medium         : 4782 (0x12AE)
  364. Format                                   : PGS
  365. Muxing mode                              : zlib
  366. Codec ID                                 : S_HDMV/PGS
  367. Codec ID/Info                            : Picture based subtitle format used on BDs/HD-DVDs
  368. Duration                                 : 1 h 45 min
  369. Bit rate                                 : 9 820 b/s
  370. Count of elements                        : 996
  371. Stream size                              : 7.43 MiB (0%)
  372. Language                                 : Japanese
  373. Default                                  : No
  374. Forced                                   : No
  375. Original source medium                   : Blu-ray
  376. Text #20
  377. ID                                       : 24
  378. ID in the original source medium         : 4783 (0x12AF)
  379. Format                                   : PGS
  380. Muxing mode                              : zlib
  381. Codec ID                                 : S_HDMV/PGS
  382. Codec ID/Info                            : Picture based subtitle format used on BDs/HD-DVDs
  383. Duration                                 : 1 h 37 min
  384. Bit rate                                 : 12.7 kb/s
  385. Count of elements                        : 1050
  386. Stream size                              : 8.86 MiB (0%)
  387. Language                                 : Norwegian
  388. Default                                  : No
  389. Forced                                   : No
  390. Original source medium                   : Blu-ray
  391. Text #21
  392. ID                                       : 25
  393. ID in the original source medium         : 4784 (0x12B0)
  394. Format                                   : PGS
  395. Muxing mode                              : zlib
  396. Codec ID                                 : S_HDMV/PGS
  397. Codec ID/Info                            : Picture based subtitle format used on BDs/HD-DVDs
  398. Duration                                 : 1 h 39 min
  399. Bit rate                                 : 13.0 kb/s
  400. Count of elements                        : 1118
  401. Stream size                              : 9.22 MiB (0%)
  402. Language                                 : Spanish
  403. Default                                  : No
  404. Forced                                   : No
  405. Original source medium                   : Blu-ray
  406. Text #22
  407. ID                                       : 26
  408. ID in the original source medium         : 4784 (0x12B0)
  409. Format                                   : PGS
  410. Muxing mode                              : zlib
  411. Codec ID                                 : S_HDMV/PGS
  412. Codec ID/Info                            : Picture based subtitle format used on BDs/HD-DVDs
  413. Duration                                 : 59 min 30 s
  414. Bit rate                                 : 303 b/s
  415. Count of elements                        : 14
  416. Stream size                              : 132 KiB (0%)
  417. Language                                 : Spanish
  418. Default                                  : No
  419. Forced                                   : No
  420. Original source medium                   : Blu-ray
  421. Text #23
  422. ID                                       : 27
  423. ID in the original source medium         : 4785 (0x12B1)
  424. Format                                   : PGS
  425. Muxing mode                              : zlib
  426. Codec ID                                 : S_HDMV/PGS
  427. Codec ID/Info                            : Picture based subtitle format used on BDs/HD-DVDs
  428. Duration                                 : 1 h 45 min
  429. Bit rate                                 : 10.8 kb/s
  430. Count of elements                        : 850
  431. Stream size                              : 8.16 MiB (0%)
  432. Language                                 : Swedish
  433. Default                                  : No
  434. Forced                                   : No
  435. Original source medium                   : Blu-ray
  436. Text #24
  437. ID                                       : 28
  438. ID in the original source medium         : 4786 (0x12B2)
  439. Format                                   : PGS
  440. Muxing mode                              : zlib
  441. Codec ID                                 : S_HDMV/PGS
  442. Codec ID/Info                            : Picture based subtitle format used on BDs/HD-DVDs
  443. Duration                                 : 1 h 37 min
  444. Bit rate                                 : 13.8 kb/s
  445. Count of elements                        : 1122
  446. Stream size                              : 9.68 MiB (0%)
  447. Language                                 : Turkish
  448. Default                                  : No
  449. Forced                                   : No
  450. Original source medium                   : Blu-ray
  451. Menu
  452. 00:00:00.000                             : en:Chapter 01
  453. 00:09:46.085                             : en:Chapter 02
  454. 00:12:20.823                             : en:Chapter 03
  455. 00:17:17.828                             : en:Chapter 04
  456. 00:23:11.723                             : en:Chapter 05
  457. 00:33:47.650                             : en:Chapter 06
  458. 00:38:58.252                             : en:Chapter 07
  459. 00:43:31.692                             : en:Chapter 08
  460. 00:49:11.573                             : en:Chapter 09
  461. 00:56:43.858                             : en:Chapter 10
  462. 01:03:08.826                             : en:Chapter 11
  463. 01:10:37.316                             : en:Chapter 12
  464. 01:17:16.673                             : en:Chapter 13
  465. 01:21:32.262                             : en:Chapter 14
  466. 01:28:48.573                             : en:Chapter 15
  467. 01:32:17.990                             : en:Chapter 16
复制代码









                                       
                                       

                                       
                                       
                                       





回复

使用道具 举报

蓝光币
82
发表于 2021-10-27 02:44:18 | 显示全部楼层

感谢楼主的无私分享!要想蓝光电影网好 就靠你我他
回复 支持 反对

使用道具 举报

蓝光币
363
发表于 2021-10-27 07:57:11 | 显示全部楼层
楼主发贴辛苦了,谢谢楼主分享!我觉得蓝光电影网是注册对了!
回复 支持 反对

使用道具 举报

蓝光币
11
发表于 2021-10-27 17:13:53 | 显示全部楼层

楼主发贴辛苦了,谢谢楼主分享!我觉得蓝光电影网是注册对了!
回复 支持 反对

使用道具 举报

懒得打字嘛,点击右侧快捷回复 【右侧内容,后台自定义】
您需要登录后才可以回帖 登录 | 立即加入

本版积分规则

Archiver|小黑屋| 蓝光电影网 |网站地图

Copyright © 2021 Comsenz Inc. Powered by 蓝光电影网

蓝光电影网

本站内容由用户自主分享和转载自互联网,转载目的在于传递更多信息,并不代表本网赞同其观点和对其真实性负责。

如有侵权、违反国家法律政策行为,请联系我们,我们会第一时间及时清除和处理!

举报反馈邮箱:[email protected]

快速回复 返回顶部 返回列表