找回密码

蓝光电影网

查看: 558|回复: 4

[2160p-WEB] 大智若愚 Nobodys.Fool.2018.2160p.WEB-DL.x265.10bit.HDR10Plus.DTS-HD.MA.5.1-SWTYBLZ 14.31GB

[复制链接]
蓝光币
682
发表于 2021-10-27 09:35:06 | 显示全部楼层 |阅读模式


◎译  名 深藏若虚/The List/名单/姐妹行不可(台)
◎片  名 Nobody's Fool
◎年  代 2018
◎产  地 美国
◎类  别 剧情 / 笑剧
◎语  言 英语
◎上映日期 2018-11-02(美国)
◎豆瓣评分 5.1/10 from 180 users
◎豆瓣链接 https://movie.douban.com/subject/30162060/
◎片  长 110分钟
◎导  演 泰勒·派瑞 Tyler Perry
◎编  剧 泰勒·派瑞 Tyler Perry
◎主  演 蒂凡尼·哈迪斯 Tiffany Haddish
       考特尼·海根勒 Courtney Henggeler
       米西·派勒 Missi Pyle
       乌比·戈德堡 Whoopi Goldberg
       提卡·森普特 Tika Sumpter
       欧玛瑞·哈德威克 Omari Hardwick
       麦卡德·布鲁克斯 Mehcad Brooks
       乔恩·鲁德尼茨基 Jon Rudnitsky
       安伯·莱利 Amber Riley
       玛丽亚·Z·威尔逊 Maria Z. Wilson
       塔拉吉·P·汉森 Taraji P. Henson
       内夫·舒尔曼 Nev Schulman
◎标  签 笑剧 | 美国 | 2018 | 恋爱 | 美国电影 | 黑人 | 蒂凡尼·哈迪斯 | 社会
◎简  介


  蒂凡尼·哈迪斯 (《嗨翻姐妹行》)加盟泰勒·派瑞(《黑疯婆子的万圣节》《拜见布朗一家》)自编自导新片《名单》(The List),提卡·森普特和欧玛瑞·哈德威克参演。报告女配角Danica(森普特)的狂野姐姐(哈迪斯)出狱,重新进入她的生活中后,Danica被迫接管能够被一个从未见过面的网聊男友欺骗的究竟。派拉蒙已定档11月2日北美上映。
  1. Video
  2. ID                                       : 1
  3. Format                                   : HEVC
  4. Format/Info                              : High Efficiency Video Coding
  5. Format profile                           : Main [email protected]@High
  6. HDR format                               : SMPTE ST 2094 App 4, Version 1, HDR10+ Profile B compatible
  7. Codec ID                                 : V_MPEGH/ISO/HEVC
  8. Duration                                 : 1 h 50 min
  9. Bit rate                                 : 14.5 Mb/s
  10. Width                                    : 3 840 pixels
  11. Height                                   : 2 160 pixels
  12. Display aspect ratio                     : 16:9
  13. Frame rate mode                          : Constant
  14. Frame rate                               : 23.976 (24000/1001/189150) FPS
  15. Color space                              : YUV
  16. Chroma subsampling                       : 4:2:0 (Type 2)
  17. Bit depth                                : 10 bits
  18. Bits/(Pixel*Frame)                       : 0.073
  19. Stream size                              : 11.2 GiB (78%)
  20. Language                                 : English
  21. Default                                  : Yes
  22. Forced                                   : No
  23. Color range                              : Full
  24. Color primaries                          : BT.2020
  25. Transfer characteristics                 : PQ
  26. Matrix coefficients                      : BT.2020 non-constant
  27. Mastering display color primaries        : Display P3
  28. Mastering display luminance              : min: 0.0050 cd/m2, max: 4000 cd/m2
  29. Audio #1
  30. ID                                       : 2
  31. Format                                   : DTS XLL
  32. Format/Info                              : Digital Theater Systems
  33. Commercial name                          : DTS-HD Master Audio
  34. Codec ID                                 : A_DTS
  35. Duration                                 : 1 h 50 min
  36. Bit rate mode                            : Variable
  37. Bit rate                                 : 3 191 kb/s
  38. Channel(s)                               : 6 channels
  39. Channel layout                           : C L R Ls Rs LFE
  40. Sampling rate                            : 48.0 kHz
  41. Frame rate                               : 93.750 FPS (512 SPF)
  42. Bit depth                                : 24 bits
  43. Compression mode                         : Lossless
  44. Stream size                              : 2.46 GiB (17%)
  45. Title                                    : DTS-HD MA 5.1
  46. Language                                 : English
  47. Default                                  : Yes
  48. Forced                                   : No
  49. Audio #2
  50. ID                                       : 3
  51. Format                                   : AC-3
  52. Format/Info                              : Audio Coding 3
  53. Commercial name                          : Dolby Digital
  54. Codec ID                                 : A_AC3
  55. Duration                                 : 1 h 50 min
  56. Bit rate mode                            : Constant
  57. Bit rate                                 : 384 kb/s
  58. Channel(s)                               : 6 channels
  59. Channel layout                           : L R C LFE Ls Rs
  60. Sampling rate                            : 48.0 kHz
  61. Frame rate                               : 31.250 FPS (1536 SPF)
  62. Compression mode                         : Lossy
  63. Stream size                              : 303 MiB (2%)
  64. Title                                    : DD 5..1
  65. Language                                 : English
  66. Service kind                             : Complete Main
  67. Default                                  : No
  68. Forced                                   : No
  69. Text #1
  70. ID                                       : 4
  71. Format                                   : UTF-8
  72. Codec ID                                 : S_TEXT/UTF8
  73. Codec ID/Info                            : UTF-8 Plain Text
  74. Duration                                 : 1 h 49 min
  75. Bit rate                                 : 96 b/s
  76. Count of elements                        : 2340
  77. Stream size                              : 77.7 KiB (0%)
  78. Title                                    : SRT
  79. Language                                 : English
  80. Default                                  : Yes
  81. Forced                                   : No
  82. Text #2
  83. ID                                       : 5
  84. Format                                   : PGS
  85. Muxing mode                              : zlib
  86. Codec ID                                 : S_HDMV/PGS
  87. Codec ID/Info                            : Picture based subtitle format used on BDs/HD-DVDs
  88. Duration                                 : 1 h 45 min
  89. Bit rate                                 : 66.3 kb/s
  90. Count of elements                        : 4246
  91. Stream size                              : 50.1 MiB (0%)
  92. Language                                 : English
  93. Default                                  : No
  94. Forced                                   : No
  95. Text #3
  96. ID                                       : 6
  97. Format                                   : PGS
  98. Muxing mode                              : zlib
  99. Codec ID                                 : S_HDMV/PGS
  100. Codec ID/Info                            : Picture based subtitle format used on BDs/HD-DVDs
  101. Duration                                 : 1 h 49 min
  102. Bit rate                                 : 69.2 kb/s
  103. Count of elements                        : 4524
  104. Stream size                              : 54.1 MiB (0%)
  105. Title                                    : SDH
  106. Language                                 : English
  107. Default                                  : No
  108. Forced                                   : No
  109. Text #4
  110. ID                                       : 7
  111. Format                                   : PGS
  112. Muxing mode                              : zlib
  113. Codec ID                                 : S_HDMV/PGS
  114. Codec ID/Info                            : Picture based subtitle format used on BDs/HD-DVDs
  115. Duration                                 : 1 h 49 min
  116. Bit rate                                 : 32.2 kb/s
  117. Count of elements                        : 4202
  118. Stream size                              : 25.2 MiB (0%)
  119. Language                                 : Arabic
  120. Default                                  : No
  121. Forced                                   : No
  122. Text #5
  123. ID                                       : 8
  124. Format                                   : PGS
  125. Muxing mode                              : zlib
  126. Codec ID                                 : S_HDMV/PGS
  127. Codec ID/Info                            : Picture based subtitle format used on BDs/HD-DVDs
  128. Duration                                 : 1 h 49 min
  129. Bit rate                                 : 46.6 kb/s
  130. Count of elements                        : 4202
  131. Stream size                              : 36.5 MiB (0%)
  132. Title                                    : Cantonese
  133. Language                                 : Chinese
  134. Default                                  : No
  135. Forced                                   : No
  136. Text #6
  137. ID                                       : 9
  138. Format                                   : PGS
  139. Muxing mode                              : zlib
  140. Codec ID                                 : S_HDMV/PGS
  141. Codec ID/Info                            : Picture based subtitle format used on BDs/HD-DVDs
  142. Duration                                 : 1 h 49 min
  143. Bit rate                                 : 49.4 kb/s
  144. Count of elements                        : 4194
  145. Stream size                              : 38.7 MiB (0%)
  146. Title                                    : Traditional (Taiwan)
  147. Language                                 : Chinese
  148. Default                                  : No
  149. Forced                                   : No
  150. Text #7
  151. ID                                       : 10
  152. Format                                   : PGS
  153. Muxing mode                              : zlib
  154. Codec ID                                 : S_HDMV/PGS
  155. Codec ID/Info                            : Picture based subtitle format used on BDs/HD-DVDs
  156. Duration                                 : 1 h 49 min
  157. Bit rate                                 : 53.8 kb/s
  158. Count of elements                        : 3496
  159. Stream size                              : 42.2 MiB (0%)
  160. Language                                 : Dutch
  161. Default                                  : No
  162. Forced                                   : No
  163. Text #8
  164. ID                                       : 11
  165. Format                                   : PGS
  166. Muxing mode                              : zlib
  167. Codec ID                                 : S_HDMV/PGS
  168. Codec ID/Info                            : Picture based subtitle format used on BDs/HD-DVDs
  169. Duration                                 : 1 h 49 min
  170. Bit rate                                 : 63.4 kb/s
  171. Count of elements                        : 4196
  172. Stream size                              : 49.7 MiB (0%)
  173. Language                                 : French
  174. Default                                  : No
  175. Forced                                   : No
  176. Text #9
  177. ID                                       : 12
  178. Format                                   : PGS
  179. Muxing mode                              : zlib
  180. Codec ID                                 : S_HDMV/PGS
  181. Codec ID/Info                            : Picture based subtitle format used on BDs/HD-DVDs
  182. Duration                                 : 1 h 49 min
  183. Bit rate                                 : 61.9 kb/s
  184. Count of elements                        : 4084
  185. Stream size                              : 48.5 MiB (0%)
  186. Language                                 : German
  187. Default                                  : No
  188. Forced                                   : No
  189. Text #10
  190. ID                                       : 13
  191. Format                                   : PGS
  192. Muxing mode                              : zlib
  193. Codec ID                                 : S_HDMV/PGS
  194. Codec ID/Info                            : Picture based subtitle format used on BDs/HD-DVDs
  195. Duration                                 : 1 h 49 min
  196. Bit rate                                 : 56.3 kb/s
  197. Count of elements                        : 4227
  198. Stream size                              : 44.1 MiB (0%)
  199. Language                                 : Hindi
  200. Default                                  : No
  201. Forced                                   : No
  202. Text #11
  203. ID                                       : 14
  204. Format                                   : PGS
  205. Muxing mode                              : zlib
  206. Codec ID                                 : S_HDMV/PGS
  207. Codec ID/Info                            : Picture based subtitle format used on BDs/HD-DVDs
  208. Duration                                 : 1 h 49 min
  209. Bit rate                                 : 61.6 kb/s
  210. Count of elements                        : 4192
  211. Stream size                              : 48.3 MiB (0%)
  212. Language                                 : Icelandic
  213. Default                                  : No
  214. Forced                                   : No
  215. Text #12
  216. ID                                       : 15
  217. Format                                   : PGS
  218. Muxing mode                              : zlib
  219. Codec ID                                 : S_HDMV/PGS
  220. Codec ID/Info                            : Picture based subtitle format used on BDs/HD-DVDs
  221. Duration                                 : 1 h 45 min
  222. Bit rate                                 : 51.8 kb/s
  223. Count of elements                        : 4256
  224. Stream size                              : 39.2 MiB (0%)
  225. Language                                 : Japanese
  226. Default                                  : No
  227. Forced                                   : No
  228. Text #13
  229. ID                                       : 16
  230. Format                                   : PGS
  231. Muxing mode                              : zlib
  232. Codec ID                                 : S_HDMV/PGS
  233. Codec ID/Info                            : Picture based subtitle format used on BDs/HD-DVDs
  234. Duration                                 : 1 h 49 min
  235. Bit rate                                 : 46.0 kb/s
  236. Count of elements                        : 4202
  237. Stream size                              : 36.0 MiB (0%)
  238. Language                                 : Korean
  239. Default                                  : No
  240. Forced                                   : No
  241. Text #14
  242. ID                                       : 17
  243. Format                                   : PGS
  244. Muxing mode                              : zlib
  245. Codec ID                                 : S_HDMV/PGS
  246. Codec ID/Info                            : Picture based subtitle format used on BDs/HD-DVDs
  247. Duration                                 : 1 h 49 min
  248. Bit rate                                 : 57.6 kb/s
  249. Count of elements                        : 4200
  250. Stream size                              : 45.2 MiB (0%)
  251. Title                                    : Latin American
  252. Language                                 : Spanish
  253. Default                                  : No
  254. Forced                                   : No
  255. Text #15
  256. ID                                       : 18
  257. Format                                   : PGS
  258. Muxing mode                              : zlib
  259. Codec ID                                 : S_HDMV/PGS
  260. Codec ID/Info                            : Picture based subtitle format used on BDs/HD-DVDs
  261. Duration                                 : 1 h 49 min
  262. Bit rate                                 : 52.0 kb/s
  263. Count of elements                        : 4202
  264. Stream size                              : 40.8 MiB (0%)
  265. Language                                 : Thai
  266. Default                                  : No
  267. Forced                                   : No
  268. Text #16
  269. ID                                       : 19
  270. Format                                   : PGS
  271. Muxing mode                              : zlib
  272. Codec ID                                 : S_HDMV/PGS
  273. Codec ID/Info                            : Picture based subtitle format used on BDs/HD-DVDs
  274. Duration                                 : 1 h 49 min
  275. Bit rate                                 : 59.7 kb/s
  276. Count of elements                        : 4190
  277. Stream size                              : 46.8 MiB (0%)
  278. Language                                 : Turkish
  279. Default                                  : No
  280. Forced                                   : No
  281. Menu
  282. 00:00:00.000                             : en:Chapter 1
  283. 00:08:01.731                             : en:Chapter 2
  284. 00:12:05.975                             : en:Chapter 3
  285. 00:22:15.793                             : en:Chapter 4
  286. 00:30:30.829                             : en:Chapter 5
  287. 00:38:17.295                             : en:Chapter 6
  288. 00:46:45.386                             : en:Chapter 7
  289. 00:53:31.125                             : en:Chapter 8
  290. 01:02:06.306                             : en:Chapter 9
  291. 01:09:06.934                             : en:Chapter 10
  292. 01:13:29.155                             : en:Chapter 11
  293. 01:20:32.286                             : en:Chapter 12
  294. 01:25:34.087                             : en:Chapter 13
  295. 01:32:33.256                             : en:Chapter 14
  296. 01:37:10.491                             : en:Chapter 15
  297. 01:43:12.686                             : en:Chapter 16
复制代码





                                       
                                       

                                       
                                       
                                       




回复

使用道具 举报

蓝光币
636
发表于 2021-10-27 11:06:20 | 显示全部楼层
不错,收下了。
回复 支持 反对

使用道具 举报

蓝光币
528
发表于 2021-10-27 11:33:24 | 显示全部楼层

~ 珍惜+支持 ~
回复

使用道具 举报

蓝光币
120
发表于 2021-10-27 18:21:45 | 显示全部楼层
晕,封面这个妆容很特别。
回复 支持 反对

使用道具 举报

蓝光币
172
发表于 2021-10-28 07:57:57 | 显示全部楼层

楼主太厉害了!楼主,电影应该很好看我觉得蓝光电影网真是个好地方!
回复 支持 反对

使用道具 举报

懒得打字嘛,点击右侧快捷回复 【右侧内容,后台自定义】
您需要登录后才可以回帖 登录 | 立即加入

本版积分规则

Archiver|小黑屋| 蓝光电影网 |网站地图

Copyright © 2021 Comsenz Inc. Powered by 蓝光电影网

蓝光电影网

本站内容由用户自主分享和转载自互联网,转载目的在于传递更多信息,并不代表本网赞同其观点和对其真实性负责。

如有侵权、违反国家法律政策行为,请联系我们,我们会第一时间及时清除和处理!

举报反馈邮箱:[email protected]

快速回复 返回顶部 返回列表