找回密码

蓝光电影网

查看: 586|回复: 4

[喜剧] X特遣队:全员集结 The.Suicide.Squad.2021.1080p.BluRay.x264-WoAT 16.70GB

[复制链接]
蓝光币
682
发表于 2021-10-27 11:30:29 | 显示全部楼层 |阅读模式


◎译  名 X特遣队:全员集结/Suicide Squad 2/X特遣队2/新自杀小队/自杀小队2/自杀特攻(港)/自杀突击队2/自杀突击队集结(台)
◎片  名 The Suicide Squad
◎年  代 2021
◎产  地 美国,加拿大,英国
◎类  别 笑剧 / 行动 / 科幻 / 冒险
◎语  言 英语,西班牙语
◎上映日期 2021-07-28(法国) / 2021-08-06(美国)
◎豆瓣评分 8.0/10 from 169330 users
◎豆瓣链接 https://movie.douban.com/subject/26741632/
◎片  长 132分钟
◎导  演 詹姆斯·古恩 James Gunn
◎编  剧 詹姆斯·古恩 James Gunn / 约翰·奥斯特兰德 John Ostrander
◎主  演 玛格特·罗比 Margot Robbie
       伊德里斯·艾尔巴 Idris Elba
       约翰·塞纳 John Cena
       乔尔·金纳曼 Joel Kinnaman
       西尔维斯特·史泰龙 Sylvester Stallone
       维奥拉·戴维斯 Viola Davis
       大卫·达斯马齐连 David Dastmalchian
       迈克尔·鲁克 Michael Rooker
       杰·科特尼 Jai Courtney
       彼得·卡帕尔迪 Peter Capaldi
       艾莉丝·布拉加 Alice Braga
       皮特·戴维森 Pete Davidson
       华金·科西奥 Joaquín Cosio
       胡安·迭戈·博托 Juan Diego Botto
       斯托姆·瑞德 Storm Reid
       内森·菲利安 Nathan Fillion
       塔伊加·维迪提 Taika Waititi
       史蒂夫·阿吉 Steve Agee
       肖恩·古恩 Sean Gunn
       弗卢拉·博格 Flula Borg
       约翰·奥斯特兰德 John Ostrander
       黄美玲 Mayling Ng
       丹妮拉·曼希沃 Daniela Melchior
       史蒂芬·布莱克哈特 Stephen Blackehart
       詹尼佛·霍兰德 Jennifer Holland
       迪·布拉雷·贝克尔 Dee Bradley Baker
       雷·埃尔南德斯 Rey Hernandez
       雷纳尔多·法伯勒 Reinaldo Faberlle
       乔希·文图拉 Josh Ventura
       Gerardo Davila Gerardo Davila
       米凯拉·霍沃 Mikaela Hoover
       林恩·阿什 Lynne Ashe
       安德里娅·安德拉德 Andrea Andrade
       兰德尔·P·海文斯 Randall P. Havens
       迈克尔·艾伦·米利甘 Michael Aaron Milligan
       特伦斯·罗斯摩尔 Terence Rosemore
       娜塔莉·萨福兰 Natalia Safran
       詹姆斯·威廉·巴拉德 James William Ballard
       蒂莫西·卡尔 Timothy Carr
       玛丽索尔·科雷亚 Marisol Correa
       约翰·盖蒂尔 John Gettier
       麦克斯威尔·海史姑娘 Maxwell Highsmith
       洛伊德·考夫曼 Lloyd Kaufman
       迪索·拉莫斯 Diezel Ramos
       弗雷迪·史卓玛 Freddie Stroma
       维多利亚·佩吉·沃特金斯 Victoria Paige Watkins
◎标  签 DC | 美国 | 科幻 | 漫画改编 | 行动 | 犯罪 | 笑剧 | 2021
◎简  介


  关押在美梦牢狱的X特遣队成员获得一项可以减轻科罚的新使命,前往南美洲的科托马耳他岛国,摧毁纳粹期间遗留的约顿海姆牢狱和尝试室,它当前用于关押该国的政治犯并实施人体尝试。履利用命时代,X特遣队遭受巨型外星生物海星斯塔罗,并与它发生抵触。
  1. Video
  2. ID                                       : 1
  3. Format                                   : AVC
  4. Format/Info                              : Advanced Video Codec
  5. Format profile                           : [email protected]
  6. Format settings                          : CABAC / 4 Ref Frames
  7. Format settings, CABAC                   : Yes
  8. Format settings, Reference frames        : 4 frames
  9. Codec ID                                 : V_MPEG4/ISO/AVC
  10. Duration                                 : 2 h 12 min
  11. Bit rate                                 : 13.9 Mb/s
  12. Width                                    : 1 920 pixels
  13. Height                                   : 1 012 pixels
  14. Display aspect ratio                     : 1.897
  15. Frame rate mode                          : Constant
  16. Frame rate                               : 23.976 (24000/1001/189150) FPS
  17. Color space                              : YUV
  18. Chroma subsampling                       : 4:2:0
  19. Bit depth                                : 8 bits
  20. Scan type                                : Progressive
  21. Bits/(Pixel*Frame)                       : 0.298
  22. Stream size                              : 12.8 GiB (77%)
  23. Writing library                          : x264 core 164 r3075 66a5bc1
  24. Encoding settings                        : cabac=1 / ref=4 / deblock=1:-3:-3 / analyse=0x3:0x133 / me=umh / subme=9 / psy=1 / psy_rd=1.00:0.00 / mixed_ref=1 / me_range=32 / chroma_me=1 / trellis=2 / 8x8dct=1 / cqm=0 / deadzone=21,11 / fast_pskip=0 / chroma_qp_offset=-2 / threads=16 / lookahead_threads=2 / sliced_threads=0 / nr=0 / decimate=0 / interlaced=0 / bluray_compat=0 / constrained_intra=0 / bframes=8 / b_pyramid=2 / b_adapt=2 / b_bias=0 / direct=3 / weightb=1 / open_gop=0 / weightp=2 / keyint=250 / keyint_min=23 / scenecut=40 / intra_refresh=0 / rc_lookahead=60 / rc=crf / mbtree=1 / crf=17.5 / qcomp=0.60 / qpmin=0 / qpmax=69 / qpstep=4 / ip_ratio=1.40 / aq=3:0.88
  25. Default                                  : Yes
  26. Forced                                   : No
  27. Color range                              : Limited
  28. Matrix coefficients                      : BT.709

  29. Audio #1
  30. ID                                       : 2
  31. Format                                   : MLP FBA 16-ch
  32. Format/Info                              : Meridian Lossless Packing FBA with 16-channel presentation
  33. Commercial name                          : Dolby TrueHD with Dolby Atmos
  34. Codec ID                                 : A_TRUEHD
  35. Duration                                 : 2 h 12 min
  36. Bit rate mode                            : Variable
  37. Bit rate                                 : 3 455 kb/s
  38. Maximum bit rate                         : 5 478 kb/s
  39. Channel(s)                               : 8 channels
  40. Channel layout                           : L R C LFE Ls Rs Lb Rb
  41. Sampling rate                            : 48.0 kHz
  42. Frame rate                               : 1 200.000 FPS (40 SPF)
  43. Compression mode                         : Lossless
  44. Stream size                              : 3.19 GiB (19%)
  45. Title                                    : English
  46. Language                                 : English
  47. Default                                  : No
  48. Forced                                   : No
  49. Number of dynamic objects                : 11
  50. Bed channel count                        : 1 channel
  51. Bed channel configuration                : LFE

  52. Audio #2
  53. ID                                       : 3
  54. Format                                   : AC-3
  55. Format/Info                              : Audio Coding 3
  56. Commercial name                          : Dolby Digital
  57. Codec ID                                 : A_AC3
  58. Duration                                 : 2 h 12 min
  59. Bit rate mode                            : Constant
  60. Bit rate                                 : 640 kb/s
  61. Channel(s)                               : 6 channels
  62. Channel layout                           : L R C LFE Ls Rs
  63. Sampling rate                            : 48.0 kHz
  64. Frame rate                               : 31.250 FPS (1536 SPF)
  65. Compression mode                         : Lossy
  66. Stream size                              : 605 MiB (4%)
  67. Title                                    : English
  68. Language                                 : English
  69. Service kind                             : Complete Main
  70. Default                                  : Yes
  71. Forced                                   : No

  72. Text #1
  73. ID                                       : 4
  74. Format                                   : PGS
  75. Muxing mode                              : zlib
  76. Codec ID                                 : S_HDMV/PGS
  77. Codec ID/Info                            : Picture based subtitle format used on BDs/HD-DVDs
  78. Duration                                 : 2 h 11 min
  79. Bit rate                                 : 36.5 kb/s
  80. Count of elements                        : 3892
  81. Stream size                              : 34.4 MiB (0%)
  82. Title                                    : English
  83. Language                                 : English
  84. Default                                  : No
  85. Forced                                   : No

  86. Text #2
  87. ID                                       : 5
  88. Format                                   : PGS
  89. Muxing mode                              : zlib
  90. Codec ID                                 : S_HDMV/PGS
  91. Codec ID/Info                            : Picture based subtitle format used on BDs/HD-DVDs
  92. Duration                                 : 2 h 11 min
  93. Bit rate                                 : 21.0 kb/s
  94. Count of elements                        : 2530
  95. Stream size                              : 19.8 MiB (0%)
  96. Title                                    : French
  97. Language                                 : French
  98. Default                                  : No
  99. Forced                                   : No

  100. Text #3
  101. ID                                       : 6
  102. Format                                   : PGS
  103. Muxing mode                              : zlib
  104. Codec ID                                 : S_HDMV/PGS
  105. Codec ID/Info                            : Picture based subtitle format used on BDs/HD-DVDs
  106. Duration                                 : 2 h 11 min
  107. Bit rate                                 : 31.4 kb/s
  108. Count of elements                        : 3756
  109. Stream size                              : 29.5 MiB (0%)
  110. Title                                    : Italian
  111. Language                                 : Italian
  112. Default                                  : No
  113. Forced                                   : No

  114. Text #4
  115. ID                                       : 7
  116. Format                                   : PGS
  117. Muxing mode                              : zlib
  118. Codec ID                                 : S_HDMV/PGS
  119. Codec ID/Info                            : Picture based subtitle format used on BDs/HD-DVDs
  120. Duration                                 : 2 h 9 min
  121. Bit rate                                 : 24.0 kb/s
  122. Count of elements                        : 2408
  123. Stream size                              : 22.3 MiB (0%)
  124. Title                                    : Spanish
  125. Language                                 : Spanish
  126. Default                                  : No
  127. Forced                                   : No

  128. Text #5
  129. ID                                       : 8
  130. Format                                   : PGS
  131. Muxing mode                              : zlib
  132. Codec ID                                 : S_HDMV/PGS
  133. Codec ID/Info                            : Picture based subtitle format used on BDs/HD-DVDs
  134. Duration                                 : 2 h 9 min
  135. Bit rate                                 : 25.0 kb/s
  136. Count of elements                        : 2590
  137. Stream size                              : 23.2 MiB (0%)
  138. Title                                    : Portuguese
  139. Language                                 : Portuguese
  140. Default                                  : No
  141. Forced                                   : No

  142. Text #6
  143. ID                                       : 9
  144. Format                                   : PGS
  145. Muxing mode                              : zlib
  146. Codec ID                                 : S_HDMV/PGS
  147. Codec ID/Info                            : Picture based subtitle format used on BDs/HD-DVDs
  148. Duration                                 : 2 h 4 min
  149. Bit rate                                 : 1 870 b/s
  150. Count of elements                        : 200
  151. Stream size                              : 1.67 MiB (0%)
  152. Title                                    : French (forced text)
  153. Language                                 : French
  154. Default                                  : No
  155. Forced                                   : No

  156. Text #7
  157. ID                                       : 10
  158. Format                                   : PGS
  159. Muxing mode                              : zlib
  160. Codec ID                                 : S_HDMV/PGS
  161. Codec ID/Info                            : Picture based subtitle format used on BDs/HD-DVDs
  162. Duration                                 : 2 h 5 min
  163. Bit rate                                 : 1 777 b/s
  164. Count of elements                        : 216
  165. Stream size                              : 1.59 MiB (0%)
  166. Title                                    : Italian (forced text)
  167. Language                                 : Italian
  168. Default                                  : No
  169. Forced                                   : No

  170. Text #8
  171. ID                                       : 11
  172. Format                                   : PGS
  173. Muxing mode                              : zlib
  174. Codec ID                                 : S_HDMV/PGS
  175. Codec ID/Info                            : Picture based subtitle format used on BDs/HD-DVDs
  176. Duration                                 : 2 h 4 min
  177. Bit rate                                 : 423 b/s
  178. Count of elements                        : 50
  179. Stream size                              : 387 KiB (0%)
  180. Title                                    : Spanish (forced text)
  181. Language                                 : Spanish
  182. Default                                  : No
  183. Forced                                   : No

  184. Text #9
  185. ID                                       : 12
  186. Format                                   : PGS
  187. Muxing mode                              : zlib
  188. Codec ID                                 : S_HDMV/PGS
  189. Codec ID/Info                            : Picture based subtitle format used on BDs/HD-DVDs
  190. Duration                                 : 2 h 4 min
  191. Bit rate                                 : 1 851 b/s
  192. Count of elements                        : 216
  193. Stream size                              : 1.65 MiB (0%)
  194. Title                                    : Portuguese (forced text)
  195. Language                                 : Portuguese
  196. Default                                  : No
  197. Forced                                   : No

  198. Menu
  199. 00:00:00.000                             : Chapter 01
  200. 00:14:25.615                             : Chapter 02
  201. 00:22:08.035                             : Chapter 03
  202. 00:31:31.973                             : Chapter 04
  203. 00:40:48.696                             : Chapter 05
  204. 00:50:20.017                             : Chapter 06
  205. 01:01:09.666                             : Chapter 07
  206. 01:10:05.868                             : Chapter 08
  207. 01:19:44.488                             : Chapter 09
  208. 01:29:00.669                             : Chapter 10
  209. 01:40:41.160                             : Chapter 11
  210. 01:50:37.130                             : Chapter 12
  211. 01:59:28.536                             : Chapter 13
复制代码





                                       
                                       

                                       
                                       
                                       




回复

使用道具 举报

蓝光币
19
发表于 2021-10-27 19:50:07 | 显示全部楼层
谢谢,这片子应该不错。
回复 支持 反对

使用道具 举报

蓝光币
82
发表于 2021-10-28 00:45:57 | 显示全部楼层
楼主发贴辛苦了,谢谢楼主分享!我觉得蓝光电影网是注册对了!
回复 支持 反对

使用道具 举报

蓝光币
1
发表于 2021-10-28 08:34:55 | 显示全部楼层
楼主发贴辛苦了,谢谢楼主分享!
回复 支持 反对

使用道具 举报

蓝光币
317
发表于 2021-10-28 17:01:50 | 显示全部楼层

感谢楼主的无私分享!要想蓝光电影网好 就靠你我他
回复 支持 反对

使用道具 举报

懒得打字嘛,点击右侧快捷回复 【右侧内容,后台自定义】
您需要登录后才可以回帖 登录 | 立即加入

本版积分规则

Archiver|小黑屋| 蓝光电影网 |网站地图

Copyright © 2021 Comsenz Inc. Powered by 蓝光电影网

蓝光电影网

本站内容由用户自主分享和转载自互联网,转载目的在于传递更多信息,并不代表本网赞同其观点和对其真实性负责。

如有侵权、违反国家法律政策行为,请联系我们,我们会第一时间及时清除和处理!

举报反馈邮箱:[email protected]

快速回复 返回顶部 返回列表