找回密码

蓝光电影网

查看: 334|回复: 3

[10bit.HDR] 迷镇凶案/坚离地死人劫案 Suburbicon.2017.2160p.WEB-DL.x265.10bit.HDR10Plus.DTS-HD.MA.5.1-SWTYBLZ 13.46GB

[复制链接]
蓝光币
733
发表于 2021-10-27 16:38:40 | 显示全部楼层 |阅读模式


◎译  名 迷镇凶案/坚离地死人劫案(港)/完善社区谋杀案(台)/小镇郊区/迷镇
◎片  名 Suburbicon
◎年  代 2017
◎产  地 美国,英国
◎类  别 笑剧 / 悬疑 / 犯罪
◎语  言 英语
◎上映日期 2017-09-02(威尼斯电影节) / 2017-10-27(美国) / 2018-01-12(中国大陆)
◎豆瓣评分 6.2/10 from 22023 users
◎豆瓣链接 https://movie.douban.com/subject/2133433/
◎片  长 104分钟
◎导  演 乔治·克鲁尼 George Clooney
◎编  剧 乔尔·科恩 Joel Coen / 伊桑·科恩 Ethan Coen / 乔治·克鲁尼 George Clooney / 格兰特·赫斯洛夫 Grant Heslov
◎主  演 马特·达蒙 Matt Damon
       朱丽安·摩尔 Julianne Moore
       奥斯卡·伊萨克 Oscar Isaac
       诺亚·尤佩 Noah Jupe
       托尼·埃斯皮诺萨 Tony Espinosa
       格伦·弗莱舍尔 Glenn Fleshler
       梅根·弗格森 Megan Ferguson
       杰克·康利 Jack Conley
       迈克尔·D·科恩 Michael D. Cohen
       黛安·德恩 Diane Dehn
       盖里·巴萨拉巴 Gary Basaraba
       斯蒂夫·蒙罗埃 Steve Monroe
       阿历克斯·哈赛尔 Alex Hassell
       利斯·M·伯克 Leith M. Burke
       克里麦·威斯特博克 Karimah Westbrook
       霍普·班克斯 Hope Banks
       罗伯特·皮尔斯 Robert Pierce
       文斯·切法卢 Vince Cefalu
       达什·威廉姆斯 Dash Williams
       加文·怀尔德 Gavin Wilde
       兰登·戈登 Landon Gordon
       蒂姆·聂夫 Tim Neff
       马拉·费尔克拉夫 Marah Fairclough
       艾米丽·高斯 Emily Goss
       艾瑞克·奥德 Erik Aude
       布拉迪·艾伦 Brady Allen
◎标  签 犯罪 | 美国 | 黑色诙谐 | 悬疑 | 人性 | 剧情 | 2017 | 笑剧
◎简  介


  20世纪50年月寂静的故乡小镇,中年男人加德纳(马特·达蒙 饰)的妻子在家中被杀戮。由此安好的生活被打破,激发出连续串勒索、骗保、迷情事务。而劈面邻人搬来了一家黑人,又是以打破了全部小镇的安好。家庭危机和小镇危机交织在了一路……
◎获奖情况
  第74届威尼斯电影节 ?(2017)
  主比赛单元金狮奖(提名) 乔治·克鲁尼
  1. Video
  2. ID                                       : 1
  3. Format                                   : HEVC
  4. Format/Info                              : High Efficiency Video Coding
  5. Format profile                           : Main [email protected]@High
  6. HDR format                               : SMPTE ST 2094 App 4, Version 1, HDR10+ Profile B compatible
  7. Codec ID                                 : V_MPEGH/ISO/HEVC
  8. Duration                                 : 1 h 45 min
  9. Bit rate                                 : 14.4 Mb/s
  10. Width                                    : 3 840 pixels
  11. Height                                   : 2 160 pixels
  12. Display aspect ratio                     : 16:9
  13. Frame rate mode                          : Constant
  14. Frame rate                               : 23.976 (24000/1001/189150) FPS
  15. Color space                              : YUV
  16. Chroma subsampling                       : 4:2:0 (Type 2)
  17. Bit depth                                : 10 bits
  18. Bits/(Pixel*Frame)                       : 0.072
  19. Stream size                              : 10.6 GiB (78%)
  20. Language                                 : English
  21. Default                                  : Yes
  22. Forced                                   : No
  23. Color range                              : Full
  24. Color primaries                          : BT.2020
  25. Transfer characteristics                 : PQ
  26. Matrix coefficients                      : BT.2020 non-constant
  27. Mastering display color primaries        : Display P3
  28. Mastering display luminance              : min: 0.0050 cd/m2, max: 4000 cd/m2

  29. Audio #1
  30. ID                                       : 2
  31. Format                                   : DTS XLL
  32. Format/Info                              : Digital Theater Systems
  33. Commercial name                          : DTS-HD Master Audio
  34. Codec ID                                 : A_DTS
  35. Duration                                 : 1 h 45 min
  36. Bit rate mode                            : Variable
  37. Bit rate                                 : 3 560 kb/s
  38. Channel(s)                               : 6 channels
  39. Channel layout                           : C L R Ls Rs LFE
  40. Sampling rate                            : 48.0 kHz
  41. Frame rate                               : 93.750 FPS (512 SPF)
  42. Bit depth                                : 24 bits
  43. Compression mode                         : Lossless
  44. Delay relative to video                  : 1 ms
  45. Stream size                              : 2.61 GiB (19%)
  46. Title                                    : DTS-HD MA 5.1
  47. Language                                 : English
  48. Default                                  : Yes
  49. Forced                                   : No

  50. Audio #2
  51. ID                                       : 3
  52. Format                                   : AC-3
  53. Format/Info                              : Audio Coding 3
  54. Commercial name                          : Dolby Digital
  55. Codec ID                                 : A_AC3
  56. Duration                                 : 1 h 45 min
  57. Bit rate mode                            : Constant
  58. Bit rate                                 : 384 kb/s
  59. Channel(s)                               : 6 channels
  60. Channel layout                           : L R C LFE Ls Rs
  61. Sampling rate                            : 48.0 kHz
  62. Frame rate                               : 31.250 FPS (1536 SPF)
  63. Compression mode                         : Lossy
  64. Stream size                              : 288 MiB (2%)
  65. Title                                    : DD 5.1
  66. Language                                 : English
  67. Service kind                             : Complete Main
  68. Default                                  : No
  69. Forced                                   : No

  70. Text
  71. ID                                       : 4
  72. Format                                   : UTF-8
  73. Codec ID                                 : S_TEXT/UTF8
  74. Codec ID/Info                            : UTF-8 Plain Text
  75. Duration                                 : 1 h 35 min
  76. Bit rate                                 : 57 b/s
  77. Count of elements                        : 1425
  78. Stream size                              : 40.2 KiB (0%)
  79. Title                                    : SRT
  80. Language                                 : English
  81. Default                                  : Yes
  82. Forced                                   : No

  83. Menu
  84. 00:00:00.000                             : en:00:00:00.000
  85. 00:04:50.165                             : en:00:04:50.165
  86. 00:15:11.452                             : en:00:15:11.452
  87. 00:23:09.305                             : en:00:23:09.305
  88. 00:33:08.612                             : en:00:33:08.612
  89. 00:39:36.916                             : en:00:39:36.916
  90. 00:44:29.125                             : en:00:44:29.125
  91. 00:49:19.540                             : en:00:49:19.540
  92. 00:56:36.560                             : en:00:56:36.560
  93. 01:05:06.778                             : en:01:05:06.778
  94. 01:14:14.283                             : en:01:14:14.283
  95. 01:23:46.855                             : en:01:23:46.855
  96. 01:27:54.352                             : en:01:27:54.352
  97. 01:33:47.914                             : en:01:33:47.914
  98. 01:37:15.204                             : en:01:37:15.204
复制代码





                                       
                                       

                                       
                                       
                                       




回复

使用道具 举报

蓝光币
100
发表于 2021-10-27 18:04:19 | 显示全部楼层

我看不错噢 谢谢楼主!蓝光电影网越来越好!
回复 支持 反对

使用道具 举报

蓝光币
0
发表于 2021-10-28 00:08:41 | 显示全部楼层
谢谢楼主 感谢楼主 感谢蓝光电影网~!~
回复 支持 反对

使用道具 举报

蓝光币
185
发表于 2021-10-28 09:18:10 | 显示全部楼层
楼主发贴辛苦了,谢谢楼主分享!我觉得蓝光电影网是注册对了!
回复 支持 反对

使用道具 举报

懒得打字嘛,点击右侧快捷回复 【右侧内容,后台自定义】
您需要登录后才可以回帖 登录 | 立即加入

本版积分规则

Archiver|小黑屋| 蓝光电影网 |网站地图

Copyright © 2021 Comsenz Inc. Powered by 蓝光电影网

蓝光电影网

本站内容由用户自主分享和转载自互联网,转载目的在于传递更多信息,并不代表本网赞同其观点和对其真实性负责。

如有侵权、违反国家法律政策行为,请联系我们,我们会第一时间及时清除和处理!

举报反馈邮箱:[email protected]

快速回复 返回顶部 返回列表