找回密码

蓝光电影网

查看: 323|回复: 2

[10bit.HDR] 黑夜传说3:狼族崛起/决战异世界前传:鬼哭狼嚎 Underworld.Rise.of.the.Lycans.2009.2160p.UHD.BluRay.x265.10bit.HDR.DTS-HD.MA.TrueHD.7.1.Atmos-SWTYBLZ 28.44GB

[复制链接]
蓝光币
682
发表于 2021-10-27 18:43:42 | 显示全部楼层 |阅读模式


◎译  名 黑夜传闻3:狼族突起/决战异天下前传:鬼哭狼嚎(台)/妖夜寻狼前传之狼神诞生/妖夜寻狼前传之狼神诞生(港)/黑夜传闻前传:狼族复兴
◎片  名 Underworld: Rise of the Lycans
◎年  代 2009
◎产  地 美国,新西兰
◎类  别 行动 / 惊悚 / 奇异
◎语  言 英语
◎上映日期 2009-01-23(美国)
◎豆瓣评分 6.8/10 from 45258 users
◎豆瓣链接 https://movie.douban.com/subject/2132941/
◎片  长 92 分钟
◎导  演 帕特里克·塔特普洛斯 Patrick Tatopoulos
◎编  剧 丹尼·麦克布莱德 Danny McBride / 伦·怀斯曼 Len Wiseman / 凯文·格雷维奥斯 Kevin Grevioux / 德克·布莱克曼 Dirk Blackman / 霍华德·麦凯恩 Howard McCain
◎主  演 麦克·辛 Michael Sheen
       比尔·奈伊 Bill Nighy
       罗娜·迈特拉 Rhona Mitra
       斯蒂文·麦金托什 Steven Mackintosh
       凯文·格雷维奥斯 Kevin Grevioux
       伊丽莎白·霍桑 Elizabeth Hawthorne
       蒂莫西拉比 Timothy Raby
       贾里德·特纳 Jared Turner
       Kurt Carley Kurt Carley
       坦尼亚·诺兰 Tania Nolan
       克雷格·帕克 Craig Parker
       山恩·布罗利 Shane Brolly
       马克·米钦森 Mark Mitchinson
◎标  签 吸血鬼 | 魔幻 | 美国 | 狼人 | 行动 | 黑夜传闻 | 美国电影 | 2009
◎简  介


  悠远的黑暗世纪,柯文诺斯的子孙一分为二。血族在维多(比利·奈伊 Bill Nighy 饰)的带领下独行全国,强大的吸血兵团压制极具沾染性且没法进化成人的残暴狼族。直到某天,一个奇异的生命诞生,改变了这两个家属的命运。一只母狼诞下有着人类表面的狼人路西安(麦克·辛 Michael Sheen 饰),维多窥见狼人身材内的强大气力,因而对其大量滋生,并将狼人纳为办事血族的仆从。仆从的磨难永无终结,而在这一进程中路西安还冒全国之大不韪与维多的女儿桑雅(罗娜·迈特拉 Rhona Mitra 饰)偷偷相恋。
  
  渴望自在的路西安终极想法解开维多对自己的禁锢,狼人与血族延续数百年的战争亦由此拉开序幕……

  1. Video
  2. ID : 1
  3. Format : HEVC
  4. Format/Info : High Efficiency Video Coding
  5. Format profile : Main [email protected]@High
  6. HDR format : SMPTE ST 2086, HDR10 compatible
  7. Codec ID : V_MPEGH/ISO/HEVC
  8. Duration : 1 h 32 min
  9. Bit rate : 34.0 Mb/s
  10. Width : 3 840 pixels
  11. Height : 1 606 pixels
  12. Display aspect ratio : 2.40:1
  13. Frame rate mode : Constant
  14. Frame rate : 23.976 (24000/1001) FPS
  15. Color space : YUV
  16. Chroma subsampling : 4:2:0 (Type 2)
  17. Bit depth : 10 bits
  18. Bits/(Pixel*Frame) : 0.230
  19. Stream size : 22.0 GiB (78%)
  20. Writing library : x265 3.0_Au+10-74a8672ea4f7:[Windows][GCC 8.2.1][64 bit] 10bit
  21. Encoding settings : cpuid=1111039 / frame-threads=6 / numa-pools=24,24,24,24 / wpp / no-pmode / no-pme / no-psnr / no-ssim / log-level=2 / input-csp=1 / input-res=3840x1606 / interlace=0 / total-frames=0 / level-idc=51 / high-tier=1 / uhd-bd=0 / ref=3 / no-allow-non-conformance / repeat-headers / annexb / aud / hrd / info / hash=0 / no-temporal-layers / no-open-gop / min-keyint=1 / keyint=24 / gop-lookahead=0 / bframes=4 / b-adapt=2 / b-pyramid / bframe-bias=0 / rc-lookahead=25 / lookahead-slices=4 / scenecut=40 / radl=0 / no-splice / no-intra-refresh / ctu=64 / min-cu-size=8 / no-rect / no-amp / max-tu-size=32 / tu-inter-depth=1 / tu-intra-depth=1 / limit-tu=0 / rdoq-level=0 / dynamic-rd=0.00 / no-ssim-rd / signhide / no-tskip / nr-intra=0 / nr-inter=0 / no-constrained-intra / strong-intra-smoothing / max-merge=2 / limit-refs=3 / no-limit-modes / me=1 / subme=2 / merange=57 / temporal-mvp / weightp / no-weightb / no-analyze-src-pics / deblock=0:0 / no-sao / no-sao-non-deblock / rd=3 / no-early-skip / rskip / no-fast-intra / no-tskip-fast / no-cu-lossless / no-b-intra / no-splitrd-skip / rdpenalty=0 / psy-rd=2.00 / psy-rdoq=0.00 / no-rd-refine / no-lossless / cbqpoffs=0 / crqpoffs=0 / rc=crf / crf=16.0 / qcomp=0.60 / qpstep=4 / stats-write=0 / stats-read=0 / vbv-maxrate=160000 / vbv-bufsize=160000 / vbv-init=0.9 / crf-max=0.0 / crf-min=0.0 / ipratio=1.40 / pbratio=1.30 / aq-mode=1 / aq-strength=1.00 / cutree / zone-count=0 / no-strict-cbr / qg-size=32 / no-rc-grain / qpmax=69 / qpmin=0 / no-const-vbv / sar=1 / overscan=0 / videoformat=5 / range=0 / colorprim=9 / transfer=16 / colormatrix=9 / chromaloc=1 / chromaloc-top=2 / chromaloc-bottom=2 / display-window=0 / master-display=G(8500,39850)B(6550,2300)R(35400,14600)WP(15635,16450)L(10000000,01) / max-cll=997,483 / min-luma=0 / max-luma=1023 / log2-max-poc-lsb=8 / vui-timing-info / vui-hrd-info / slices=1 / opt-qp-pps / opt-ref-list-length-pps / no-multi-pass-opt-rps / scenecut-bias=0.05 / no-opt-cu-delta-qp / no-aq-motion / hdr / hdr-opt / no-dhdr10-opt / no-idr-recovery-sei / analysis-reuse-level=5 / scale-factor=0 / refine-intra=0 / refine-inter=0 / refine-mv=0 / refine-ctu-distortion=0 / no-limit-sao / ctu-info=0 / no-lowpass-dct / refine-analysis-type=-1244243349 / copy-pic=1 / max-ausize-factor=1.0 / no-dynamic-refine / no-single-sei / no-hevc-aq / no-svt / qp-adaptation-range=1.00
  22. Default : Yes
  23. Forced : No
  24. Color range : Limited
  25. Color primaries : BT.2020
  26. Transfer characteristics : PQ
  27. Matrix coefficients : BT.2020 non-constant
  28. Mastering display color primaries : BT.2020
  29. Mastering display luminance : min: 0.0001 cd/m2, max: 1000 cd/m2
  30. Maximum Content Light Level : 997 cd/m2
  31. Maximum Frame-Average Light Level : 483 cd/m2

  32. Audio #1
  33. ID : 2
  34. ID in the original source medium : 4352 (0x1100)
  35. Format : MLP FBA 16-ch
  36. Format/Info : Meridian Lossless Packing FBA with 16-channel presentation
  37. Commercial name : Dolby TrueHD with Dolby Atmos
  38. Codec ID : A_TRUEHD
  39. Duration : 1 h 32 min
  40. Bit rate mode : Variable
  41. Bit rate : 4 640 kb/s
  42. Maximum bit rate : 7 854 kb/s
  43. Channel(s) : 8 channels
  44. Channel layout : L R C LFE Ls Rs Lb Rb
  45. Sampling rate : 48.0 kHz
  46. Frame rate : 1 200.000 FPS (40 SPF)
  47. Bit depth : 24 bits
  48. Compression mode : Lossless
  49. Stream size : 3.00 GiB (11%)
  50. Title : TrueHD 7.1 Atmos
  51. Language : English
  52. Default : Yes
  53. Forced : No
  54. Original source medium : Blu-ray
  55. Number of dynamic objects : 11
  56. Bed channel count : 1 channel
  57. Bed channel configuration : LFE

  58. Audio #2
  59. ID : 3
  60. Format : DTS XLL
  61. Format/Info : Digital Theater Systems
  62. Commercial name : DTS-HD Master Audio
  63. Codec ID : A_DTS
  64. Duration : 1 h 32 min
  65. Bit rate mode : Variable
  66. Bit rate : 4 200 kb/s
  67. Channel(s) : 8 channels
  68. Channel layout : C L R LFE Lb Rb Lss Rss
  69. Sampling rate : 48.0 kHz
  70. Frame rate : 93.750 FPS (512 SPF)
  71. Bit depth : 24 bits
  72. Compression mode : Lossless
  73. Stream size : 2.71 GiB (10%)
  74. Title : DTS-HD MA 7.1
  75. Language : English
  76. Default : No
  77. Forced : No

  78. Audio #3
  79. ID : 4
  80. ID in the original source medium : 4352 (0x1100)
  81. Format : AC-3
  82. Format/Info : Audio Coding 3
  83. Commercial name : Dolby Digital
  84. Codec ID : A_AC3
  85. Duration : 1 h 32 min
  86. Bit rate mode : Constant
  87. Bit rate : 640 kb/s
  88. Channel(s) : 6 channels
  89. Channel layout : L R C LFE Ls Rs
  90. Sampling rate : 48.0 kHz
  91. Frame rate : 31.250 FPS (1536 SPF)
  92. Compression mode : Lossy
  93. Stream size : 423 MiB (1%)
  94. Title : DD 5.1
  95. Language : English
  96. Service kind : Complete Main
  97. Default : No
  98. Forced : No
  99. Original source medium : Blu-ray

  100. Text #1
  101. ID : 5
  102. Format : UTF-8
  103. Codec ID : S_TEXT/UTF8
  104. Codec ID/Info : UTF-8 Plain Text
  105. Duration : 1 h 30 min
  106. Bit rate : 31 b/s
  107. Count of elements : 664
  108. Stream size : 20.9 KiB (0%)
  109. Title : SRT
  110. Language : English
  111. Default : Yes
  112. Forced : No

  113. Text #2
  114. ID : 6
  115. ID in the original source medium : 4768 (0x12A0)
  116. Format : PGS
  117. Muxing mode : zlib
  118. Codec ID : S_HDMV/PGS
  119. Codec ID/Info : Picture based subtitle format used on BDs/HD-DVDs
  120. Duration : 1 h 31 min
  121. Bit rate : 20.3 kb/s
  122. Count of elements : 1566
  123. Stream size : 13.3 MiB (0%)
  124. Title : SDH
  125. Language : English
  126. Default : No
  127. Forced : No
  128. Original source medium : Blu-ray

  129. Text #3
  130. ID : 7
  131. ID in the original source medium : 4769 (0x12A1)
  132. Format : PGS
  133. Muxing mode : zlib
  134. Codec ID : S_HDMV/PGS
  135. Codec ID/Info : Picture based subtitle format used on BDs/HD-DVDs
  136. Duration : 1 h 22 min
  137. Bit rate : 18.9 kb/s
  138. Count of elements : 1308
  139. Stream size : 11.1 MiB (0%)
  140. Language : English
  141. Default : No
  142. Forced : No
  143. Original source medium : Blu-ray

  144. Text #4
  145. ID : 8
  146. ID in the original source medium : 4770 (0x12A2)
  147. Format : PGS
  148. Muxing mode : zlib
  149. Codec ID : S_HDMV/PGS
  150. Codec ID/Info : Picture based subtitle format used on BDs/HD-DVDs
  151. Duration : 1 h 22 min
  152. Bit rate : 9 619 b/s
  153. Count of elements : 1226
  154. Stream size : 5.66 MiB (0%)
  155. Language : Arabic
  156. Default : No
  157. Forced : No
  158. Original source medium : Blu-ray

  159. Text #5
  160. ID : 9
  161. ID in the original source medium : 4771 (0x12A3)
  162. Format : PGS
  163. Muxing mode : zlib
  164. Codec ID : S_HDMV/PGS
  165. Codec ID/Info : Picture based subtitle format used on BDs/HD-DVDs
  166. Duration : 1 h 22 min
  167. Bit rate : 16.8 kb/s
  168. Count of elements : 1308
  169. Stream size : 9.88 MiB (0%)
  170. Language : Chinese
  171. Default : No
  172. Forced : No
  173. Original source medium : Blu-ray

  174. Text #6
  175. ID : 10
  176. ID in the original source medium : 4772 (0x12A4)
  177. Format : PGS
  178. Muxing mode : zlib
  179. Codec ID : S_HDMV/PGS
  180. Codec ID/Info : Picture based subtitle format used on BDs/HD-DVDs
  181. Duration : 1 h 22 min
  182. Bit rate : 16.4 kb/s
  183. Count of elements : 1308
  184. Stream size : 9.64 MiB (0%)
  185. Language : Chinese
  186. Default : No
  187. Forced : No
  188. Original source medium : Blu-ray

  189. Text #7
  190. ID : 11
  191. ID in the original source medium : 4773 (0x12A5)
  192. Format : PGS
  193. Muxing mode : zlib
  194. Codec ID : S_HDMV/PGS
  195. Codec ID/Info : Picture based subtitle format used on BDs/HD-DVDs
  196. Duration : 1 h 31 min
  197. Bit rate : 13.9 kb/s
  198. Count of elements : 1256
  199. Stream size : 9.09 MiB (0%)
  200. Language : Czech
  201. Default : No
  202. Forced : No
  203. Original source medium : Blu-ray

  204. Text #8
  205. ID : 12
  206. ID in the original source medium : 4774 (0x12A6)
  207. Format : PGS
  208. Muxing mode : zlib
  209. Codec ID : S_HDMV/PGS
  210. Codec ID/Info : Picture based subtitle format used on BDs/HD-DVDs
  211. Duration : 1 h 22 min
  212. Bit rate : 16.6 kb/s
  213. Count of elements : 1120
  214. Stream size : 9.76 MiB (0%)
  215. Language : Danish
  216. Default : No
  217. Forced : No
  218. Original source medium : Blu-ray

  219. Text #9
  220. ID : 13
  221. ID in the original source medium : 4775 (0x12A7)
  222. Format : PGS
  223. Muxing mode : zlib
  224. Codec ID : S_HDMV/PGS
  225. Codec ID/Info : Picture based subtitle format used on BDs/HD-DVDs
  226. Duration : 1 h 22 min
  227. Bit rate : 17.3 kb/s
  228. Count of elements : 1014
  229. Stream size : 10.2 MiB (0%)
  230. Language : Dutch
  231. Default : No
  232. Forced : No
  233. Original source medium : Blu-ray

  234. Text #10
  235. ID : 14
  236. ID in the original source medium : 4776 (0x12A8)
  237. Format : PGS
  238. Muxing mode : zlib
  239. Codec ID : S_HDMV/PGS
  240. Codec ID/Info : Picture based subtitle format used on BDs/HD-DVDs
  241. Duration : 1 h 31 min
  242. Bit rate : 15.9 kb/s
  243. Count of elements : 1310
  244. Stream size : 10.4 MiB (0%)
  245. Language : Finnish
  246. Default : No
  247. Forced : No
  248. Original source medium : Blu-ray

  249. Text #11
  250. ID : 15
  251. ID in the original source medium : 4777 (0x12A9)
  252. Format : PGS
  253. Muxing mode : zlib
  254. Codec ID : S_HDMV/PGS
  255. Codec ID/Info : Picture based subtitle format used on BDs/HD-DVDs
  256. Duration : 1 h 31 min
  257. Bit rate : 16.4 kb/s
  258. Count of elements : 1276
  259. Stream size : 10.8 MiB (0%)
  260. Language : French
  261. Default : No
  262. Forced : No
  263. Original source medium : Blu-ray

  264. Text #12
  265. ID : 16
  266. ID in the original source medium : 4778 (0x12AA)
  267. Format : PGS
  268. Muxing mode : zlib
  269. Codec ID : S_HDMV/PGS
  270. Codec ID/Info : Picture based subtitle format used on BDs/HD-DVDs
  271. Duration : 1 h 22 min
  272. Bit rate : 18.3 kb/s
  273. Count of elements : 1292
  274. Stream size : 10.8 MiB (0%)
  275. Language : German
  276. Default : No
  277. Forced : No
  278. Original source medium : Blu-ray

  279. Text #13
  280. ID : 17
  281. ID in the original source medium : 4779 (0x12AB)
  282. Format : PGS
  283. Muxing mode : zlib
  284. Codec ID : S_HDMV/PGS
  285. Codec ID/Info : Picture based subtitle format used on BDs/HD-DVDs
  286. Duration : 1 h 22 min
  287. Bit rate : 18.6 kb/s
  288. Count of elements : 1232
  289. Stream size : 11.0 MiB (0%)
  290. Language : Greek
  291. Default : No
  292. Forced : No
  293. Original source medium : Blu-ray

  294. Text #14
  295. ID : 18
  296. ID in the original source medium : 4780 (0x12AC)
  297. Format : PGS
  298. Muxing mode : zlib
  299. Codec ID : S_HDMV/PGS
  300. Codec ID/Info : Picture based subtitle format used on BDs/HD-DVDs
  301. Duration : 1 h 31 min
  302. Bit rate : 13.6 kb/s
  303. Count of elements : 1310
  304. Stream size : 8.93 MiB (0%)
  305. Language : Hindi
  306. Default : No
  307. Forced : No
  308. Original source medium : Blu-ray

  309. Text #15
  310. ID : 19
  311. ID in the original source medium : 4781 (0x12AD)
  312. Format : PGS
  313. Muxing mode : zlib
  314. Codec ID : S_HDMV/PGS
  315. Codec ID/Info : Picture based subtitle format used on BDs/HD-DVDs
  316. Duration : 1 h 31 min
  317. Bit rate : 13.9 kb/s
  318. Count of elements : 1196
  319. Stream size : 9.10 MiB (0%)
  320. Language : Hungarian
  321. Default : No
  322. Forced : No
  323. Original source medium : Blu-ray

  324. Text #16
  325. ID : 20
  326. ID in the original source medium : 4782 (0x12AE)
  327. Format : PGS
  328. Muxing mode : zlib
  329. Codec ID : S_HDMV/PGS
  330. Codec ID/Info : Picture based subtitle format used on BDs/HD-DVDs
  331. Duration : 1 h 31 min
  332. Bit rate : 16.8 kb/s
  333. Count of elements : 1158
  334. Stream size : 11.0 MiB (0%)
  335. Language : Icelandic
  336. Default : No
  337. Forced : No
  338. Original source medium : Blu-ray

  339. Text #17
  340. ID : 21
  341. ID in the original source medium : 4783 (0x12AF)
  342. Format : PGS
  343. Muxing mode : zlib
  344. Codec ID : S_HDMV/PGS
  345. Codec ID/Info : Picture based subtitle format used on BDs/HD-DVDs
  346. Duration : 1 h 31 min
  347. Bit rate : 17.9 kb/s
  348. Count of elements : 1314
  349. Stream size : 11.7 MiB (0%)
  350. Language : Italian
  351. Default : No
  352. Forced : No
  353. Original source medium : Blu-ray

  354. Text #18
  355. ID : 22
  356. ID in the original source medium : 4784 (0x12B0)
  357. Format : PGS
  358. Muxing mode : zlib
  359. Codec ID : S_HDMV/PGS
  360. Codec ID/Info : Picture based subtitle format used on BDs/HD-DVDs
  361. Duration : 1 h 31 min
  362. Bit rate : 13.3 kb/s
  363. Count of elements : 1274
  364. Stream size : 8.68 MiB (0%)
  365. Language : Japanese
  366. Default : No
  367. Forced : No
  368. Original source medium : Blu-ray

  369. Text #19
  370. ID : 23
  371. ID in the original source medium : 4785 (0x12B1)
  372. Format : PGS
  373. Muxing mode : zlib
  374. Codec ID : S_HDMV/PGS
  375. Codec ID/Info : Picture based subtitle format used on BDs/HD-DVDs
  376. Duration : 1 h 23 min
  377. Bit rate : 13.8 kb/s
  378. Count of elements : 1312
  379. Stream size : 8.28 MiB (0%)
  380. Language : Korean
  381. Default : No
  382. Forced : No
  383. Original source medium : Blu-ray

  384. Text #20
  385. ID : 24
  386. ID in the original source medium : 4786 (0x12B2)
  387. Format : PGS
  388. Muxing mode : zlib
  389. Codec ID : S_HDMV/PGS
  390. Codec ID/Info : Picture based subtitle format used on BDs/HD-DVDs
  391. Duration : 1 h 22 min
  392. Bit rate : 18.9 kb/s
  393. Count of elements : 1308
  394. Stream size : 11.1 MiB (0%)
  395. Language : Norwegian
  396. Default : No
  397. Forced : No
  398. Original source medium : Blu-ray

  399. Text #21
  400. ID : 25
  401. ID in the original source medium : 4787 (0x12B3)
  402. Format : PGS
  403. Muxing mode : zlib
  404. Codec ID : S_HDMV/PGS
  405. Codec ID/Info : Picture based subtitle format used on BDs/HD-DVDs
  406. Duration : 1 h 22 min
  407. Bit rate : 17.3 kb/s
  408. Count of elements : 1258
  409. Stream size : 10.2 MiB (0%)
  410. Language : Polish
  411. Default : No
  412. Forced : No
  413. Original source medium : Blu-ray

  414. Text #22
  415. ID : 26
  416. ID in the original source medium : 4788 (0x12B4)
  417. Format : PGS
  418. Muxing mode : zlib
  419. Codec ID : S_HDMV/PGS
  420. Codec ID/Info : Picture based subtitle format used on BDs/HD-DVDs
  421. Duration : 1 h 31 min
  422. Bit rate : 17.4 kb/s
  423. Count of elements : 1304
  424. Stream size : 11.4 MiB (0%)
  425. Language : Portuguese
  426. Default : No
  427. Forced : No
  428. Original source medium : Blu-ray

  429. Text #23
  430. ID : 27
  431. ID in the original source medium : 4789 (0x12B5)
  432. Format : PGS
  433. Muxing mode : zlib
  434. Codec ID : S_HDMV/PGS
  435. Codec ID/Info : Picture based subtitle format used on BDs/HD-DVDs
  436. Duration : 1 h 31 min
  437. Bit rate : 16.9 kb/s
  438. Count of elements : 1254
  439. Stream size : 11.1 MiB (0%)
  440. Language : Romanian
  441. Default : No
  442. Forced : No
  443. Original source medium : Blu-ray

  444. Text #24
  445. ID : 28
  446. ID in the original source medium : 4790 (0x12B6)
  447. Format : PGS
  448. Muxing mode : zlib
  449. Codec ID : S_HDMV/PGS
  450. Codec ID/Info : Picture based subtitle format used on BDs/HD-DVDs
  451. Duration : 1 h 31 min
  452. Bit rate : 16.3 kb/s
  453. Count of elements : 1316
  454. Stream size : 10.7 MiB (0%)
  455. Language : Slovak
  456. Default : No
  457. Forced : No
  458. Original source medium : Blu-ray

  459. Text #25
  460. ID : 29
  461. ID in the original source medium : 4791 (0x12B7)
  462. Format : PGS
  463. Muxing mode : zlib
  464. Codec ID : S_HDMV/PGS
  465. Codec ID/Info : Picture based subtitle format used on BDs/HD-DVDs
  466. Duration : 1 h 22 min
  467. Bit rate : 16.6 kb/s
  468. Count of elements : 1308
  469. Stream size : 9.78 MiB (0%)
  470. Language : Slovenian
  471. Default : No
  472. Forced : No
  473. Original source medium : Blu-ray

  474. Text #26
  475. ID : 30
  476. ID in the original source medium : 4792 (0x12B8)
  477. Format : PGS
  478. Muxing mode : zlib
  479. Codec ID : S_HDMV/PGS
  480. Codec ID/Info : Picture based subtitle format used on BDs/HD-DVDs
  481. Duration : 1 h 23 min
  482. Bit rate : 18.8 kb/s
  483. Count of elements : 1248
  484. Stream size : 11.3 MiB (0%)
  485. Language : Spanish
  486. Default : No
  487. Forced : No
  488. Original source medium : Blu-ray

  489. Text #27
  490. ID : 31
  491. ID in the original source medium : 4793 (0x12B9)
  492. Format : PGS
  493. Muxing mode : zlib
  494. Codec ID : S_HDMV/PGS
  495. Codec ID/Info : Picture based subtitle format used on BDs/HD-DVDs
  496. Duration : 1 h 23 min
  497. Bit rate : 17.2 kb/s
  498. Count of elements : 1282
  499. Stream size : 10.3 MiB (0%)
  500. Language : Spanish
  501. Default : No
  502. Forced : No
  503. Original source medium : Blu-ray

  504. Text #28
  505. ID : 32
  506. ID in the original source medium : 4794 (0x12BA)
  507. Format : PGS
  508. Muxing mode : zlib
  509. Codec ID : S_HDMV/PGS
  510. Codec ID/Info : Picture based subtitle format used on BDs/HD-DVDs
  511. Duration : 1 h 22 min
  512. Bit rate : 18.7 kb/s
  513. Count of elements : 1284
  514. Stream size : 11.0 MiB (0%)
  515. Language : Swedish
  516. Default : No
  517. Forced : No
  518. Original source medium : Blu-ray

  519. Text #29
  520. ID : 33
  521. ID in the original source medium : 4795 (0x12BB)
  522. Format : PGS
  523. Muxing mode : zlib
  524. Codec ID : S_HDMV/PGS
  525. Codec ID/Info : Picture based subtitle format used on BDs/HD-DVDs
  526. Duration : 1 h 22 min
  527. Bit rate : 18.6 kb/s
  528. Count of elements : 1296
  529. Stream size : 11.0 MiB (0%)
  530. Language : Thai
  531. Default : No
  532. Forced : No
  533. Original source medium : Blu-ray

  534. Text #30
  535. ID : 34
  536. ID in the original source medium : 4796 (0x12BC)
  537. Format : PGS
  538. Muxing mode : zlib
  539. Codec ID : S_HDMV/PGS
  540. Codec ID/Info : Picture based subtitle format used on BDs/HD-DVDs
  541. Duration : 1 h 22 min
  542. Bit rate : 17.5 kb/s
  543. Count of elements : 1308
  544. Stream size : 10.3 MiB (0%)
  545. Language : Turkish
  546. Default : No
  547. Forced : No
  548. Original source medium : Blu-ray

  549. Menu
  550. 00:00:00.000 : en:Chapter 01
  551. 00:06:20.880 : en:Chapter 02
  552. 00:11:43.411 : en:Chapter 03
  553. 00:16:45.629 : en:Chapter 04
  554. 00:24:34.055 : en:Chapter 05
  555. 00:30:29.285 : en:Chapter 06
  556. 00:36:34.066 : en:Chapter 07
  557. 00:40:18.040 : en:Chapter 08
  558. 00:46:29.870 : en:Chapter 09
  559. 00:50:55.594 : en:Chapter 10
  560. 00:55:09.222 : en:Chapter 11
  561. 01:00:40.303 : en:Chapter 12
  562. 01:07:14.280 : en:Chapter 13
  563. 01:13:30.322 : en:Chapter 14
  564. 01:16:39.553 : en:Chapter 15
  565. 01:22:34.532 : en:Chapter 16
复制代码









                                       
                                       

                                       
                                       
                                       





回复

使用道具 举报

蓝光币
72
发表于 2021-10-27 19:15:17 | 显示全部楼层

感谢楼主的无私分享!要想蓝光电影网好 就靠你我他
回复 支持 反对

使用道具 举报

蓝光币
291
发表于 2021-10-27 19:42:29 | 显示全部楼层
楼主发贴辛苦了,谢谢楼主分享!我觉得蓝光电影网是注册对了!
回复 支持 反对

使用道具 举报

懒得打字嘛,点击右侧快捷回复 【右侧内容,后台自定义】
您需要登录后才可以回帖 登录 | 立即加入

本版积分规则

Archiver|小黑屋| 蓝光电影网 |网站地图

Copyright © 2021 Comsenz Inc. Powered by 蓝光电影网

蓝光电影网

本站内容由用户自主分享和转载自互联网,转载目的在于传递更多信息,并不代表本网赞同其观点和对其真实性负责。

如有侵权、违反国家法律政策行为,请联系我们,我们会第一时间及时清除和处理!

举报反馈邮箱:[email protected]

快速回复 返回顶部 返回列表