找回密码

蓝光电影网

查看: 342|回复: 0

[10bit.HDR] 屏住呼吸2/别呼吸2 Dont.Breathe.2.2021.2160p.UHD.BluRay.x265.10bit.HDR.DTS-HD.MA.TrueHD.7.1.Atmos-SWTYBLZ 18.98GB

[复制链接]
蓝光币
730
发表于 2021-10-27 19:02:38 | 显示全部楼层 |阅读模式


◎译  名 屏住呼吸2/别呼吸2/临时停止呼吸2(台)/禁室杀戮2(港)
◎片  名 Don't Breathe 2
◎年  代 2021
◎产  地 美国,塞尔维亚
◎类  别 惊悚 / 可骇
◎语  言 英语
◎上映日期 2021-08-13(美国)
◎豆瓣评分 6.5/10 from 18163 users
◎豆瓣链接 https://movie.douban.com/subject/26915921/
◎片  长 98分钟
◎导  演 罗多·赛亚格斯 Rodo Sayagues
◎编  剧 费德·阿尔瓦雷兹 Fede Alvarez / 罗多·赛亚格斯 Rodo Sayagues
◎主  演 史蒂芬·朗 Stephen Lang
       布兰登·萨克斯顿 Brendan Sexton III
       马德琳·格雷斯 Madelyn Grace
       罗奇·威廉姆斯 Rocci Williams
       斯蒂芬妮·阿西拉 Stephanie Arcila
       鲍比·斯科菲尔德 Bobby Schofield
       戴安娜·巴尼科娃 Diaana Babnicova
       亚当·扬 Adam Young
       克里斯蒂安·泽吉亚 Christian Zagia
       罗恩·罗格尔 Ron Rogell
       菲奥娜·奥肖内西 Fiona O'Shaughnessy
◎标  签 惊悚 | 犯罪 | 美国 | 悬疑 | 2021 | 可骇 | 美国电影 | 电影
◎简  介


  《屏住呼吸1》编剧罗多·赛亚格斯执导,并同前作导演费德·阿尔瓦雷兹一路写剧本,史蒂芬·朗、罗奇·威廉姆斯、斯蒂芬妮·阿西拉、鲍比·斯科菲尔德、亚当·扬等主演。
  
  故事发生在最初致命的入室抢劫以后的几年,眼盲的退伍老兵诺曼过着安静的生活,直到曩昔的罪行起头找上他。

  1. Video
  2. ID : 1
  3. Format : HEVC
  4. Format/Info : High Efficiency Video Coding
  5. Format profile : Main [email protected]@High
  6. HDR format : SMPTE ST 2086, HDR10 compatible
  7. Codec ID : V_MPEGH/ISO/HEVC
  8. Duration : 1 h 38 min
  9. Bit rate : 18.6 Mb/s
  10. Width : 3 840 pixels
  11. Height : 1 608 pixels
  12. Display aspect ratio : 2.40:1
  13. Frame rate mode : Constant
  14. Frame rate : 23.976 (24000/1001) FPS
  15. Color space : YUV
  16. Chroma subsampling : 4:2:0 (Type 2)
  17. Bit depth : 10 bits
  18. Bits/(Pixel*Frame) : 0.126
  19. Stream size : 12.8 GiB (68%)
  20. Writing library : x265 3.0_Au+10-74a8672ea4f7:[Windows][GCC 8.2.1][64 bit] 10bit
  21. Encoding settings : cpuid=1111039 / frame-threads=6 / numa-pools=24,24,24,24 / wpp / no-pmode / no-pme / no-psnr / no-ssim / log-level=2 / input-csp=1 / input-res=3840x1608 / interlace=0 / total-frames=0 / level-idc=51 / high-tier=1 / uhd-bd=0 / ref=3 / no-allow-non-conformance / repeat-headers / annexb / aud / hrd / info / hash=0 / no-temporal-layers / no-open-gop / min-keyint=1 / keyint=24 / gop-lookahead=0 / bframes=4 / b-adapt=2 / b-pyramid / bframe-bias=0 / rc-lookahead=25 / lookahead-slices=4 / scenecut=40 / radl=0 / no-splice / no-intra-refresh / ctu=64 / min-cu-size=8 / no-rect / no-amp / max-tu-size=32 / tu-inter-depth=1 / tu-intra-depth=1 / limit-tu=0 / rdoq-level=0 / dynamic-rd=0.00 / no-ssim-rd / signhide / no-tskip / nr-intra=0 / nr-inter=0 / no-constrained-intra / strong-intra-smoothing / max-merge=2 / limit-refs=3 / no-limit-modes / me=1 / subme=2 / merange=57 / temporal-mvp / weightp / no-weightb / no-analyze-src-pics / deblock=0:0 / no-sao / no-sao-non-deblock / rd=3 / no-early-skip / rskip / no-fast-intra / no-tskip-fast / no-cu-lossless / no-b-intra / no-splitrd-skip / rdpenalty=0 / psy-rd=2.00 / psy-rdoq=0.00 / no-rd-refine / no-lossless / cbqpoffs=0 / crqpoffs=0 / rc=crf / crf=16.0 / qcomp=0.60 / qpstep=4 / stats-write=0 / stats-read=0 / vbv-maxrate=160000 / vbv-bufsize=160000 / vbv-init=0.9 / crf-max=0.0 / crf-min=0.0 / ipratio=1.40 / pbratio=1.30 / aq-mode=1 / aq-strength=1.00 / cutree / zone-count=0 / no-strict-cbr / qg-size=32 / no-rc-grain / qpmax=69 / qpmin=0 / no-const-vbv / sar=1 / overscan=0 / videoformat=5 / range=0 / colorprim=9 / transfer=16 / colormatrix=9 / chromaloc=1 / chromaloc-top=2 / chromaloc-bottom=2 / display-window=0 / master-display=G(8500,39850)B(6550,2300)R(35400,14600)WP(15635,16450)L(10000000,01) / max-cll=995,372 / min-luma=0 / max-luma=1023 / log2-max-poc-lsb=8 / vui-timing-info / vui-hrd-info / slices=1 / opt-qp-pps / opt-ref-list-length-pps / no-multi-pass-opt-rps / scenecut-bias=0.05 / no-opt-cu-delta-qp / no-aq-motion / hdr / hdr-opt / no-dhdr10-opt / no-idr-recovery-sei / analysis-reuse-level=5 / scale-factor=0 / refine-intra=0 / refine-inter=0 / refine-mv=0 / refine-ctu-distortion=0 / no-limit-sao / ctu-info=0 / no-lowpass-dct / refine-analysis-type=0 / copy-pic=1 / max-ausize-factor=1.0 / no-dynamic-refine / no-single-sei / no-hevc-aq / no-svt / qp-adaptation-range=1.00
  22. Default : Yes
  23. Forced : No
  24. Color range : Limited
  25. Color primaries : BT.2020
  26. Transfer characteristics : PQ
  27. Matrix coefficients : BT.2020 non-constant
  28. Mastering display color primaries : BT.2020
  29. Mastering display luminance : min: 0.0001 cd/m2, max: 1000 cd/m2
  30. Maximum Content Light Level : 995 cd/m2
  31. Maximum Frame-Average Light Level : 372 cd/m2

  32. Audio #1
  33. ID : 2
  34. ID in the original source medium : 4352 (0x1100)
  35. Format : MLP FBA 16-ch
  36. Format/Info : Meridian Lossless Packing FBA with 16-channel presentation
  37. Commercial name : Dolby TrueHD with Dolby Atmos
  38. Codec ID : A_TRUEHD
  39. Duration : 1 h 38 min
  40. Bit rate mode : Variable
  41. Bit rate : 4 174 kb/s
  42. Maximum bit rate : 7 536 kb/s
  43. Channel(s) : 8 channels
  44. Channel layout : L R C LFE Ls Rs Lb Rb
  45. Sampling rate : 48.0 kHz
  46. Frame rate : 1 200.000 FPS (40 SPF)
  47. Bit depth : 24 bits
  48. Compression mode : Lossless
  49. Stream size : 2.86 GiB (15%)
  50. Title : TrueHD 7.1 Atmos
  51. Language : English
  52. Default : Yes
  53. Forced : No
  54. Original source medium : Blu-ray
  55. Number of dynamic objects : 11
  56. Bed channel count : 1 channel
  57. Bed channel configuration : LFE

  58. Audio #2
  59. ID : 3
  60. Format : DTS XLL
  61. Format/Info : Digital Theater Systems
  62. Commercial name : DTS-HD Master Audio
  63. Codec ID : A_DTS
  64. Duration : 1 h 38 min
  65. Bit rate mode : Variable
  66. Bit rate : 3 981 kb/s
  67. Channel(s) : 8 channels
  68. Channel layout : C L R LFE Lb Rb Lss Rss
  69. Sampling rate : 48.0 kHz
  70. Frame rate : 93.750 FPS (512 SPF)
  71. Bit depth : 24 bits
  72. Compression mode : Lossless
  73. Stream size : 2.73 GiB (14%)
  74. Title : DTS-HD MA 7.1
  75. Language : English
  76. Default : No
  77. Forced : No

  78. Audio #3
  79. ID : 4
  80. ID in the original source medium : 4352 (0x1100)
  81. Format : AC-3
  82. Format/Info : Audio Coding 3
  83. Commercial name : Dolby Digital
  84. Codec ID : A_AC3
  85. Duration : 1 h 38 min
  86. Bit rate mode : Constant
  87. Bit rate : 640 kb/s
  88. Channel(s) : 6 channels
  89. Channel layout : L R C LFE Ls Rs
  90. Sampling rate : 48.0 kHz
  91. Frame rate : 31.250 FPS (1536 SPF)
  92. Compression mode : Lossy
  93. Stream size : 450 MiB (2%)
  94. Title : DD 5.1
  95. Language : English
  96. Service kind : Complete Main
  97. Default : No
  98. Forced : No
  99. Original source medium : Blu-ray

  100. Text #1
  101. ID : 5
  102. Format : UTF-8
  103. Codec ID : S_TEXT/UTF8
  104. Codec ID/Info : UTF-8 Plain Text
  105. Duration : 1 h 26 min
  106. Bit rate : 15 b/s
  107. Count of elements : 467
  108. Stream size : 9.84 KiB (0%)
  109. Title : SRT
  110. Language : English
  111. Default : Yes
  112. Forced : No

  113. Text #2
  114. ID : 6
  115. ID in the original source medium : 4768 (0x12A0)
  116. Format : PGS
  117. Muxing mode : zlib
  118. Codec ID : S_HDMV/PGS
  119. Codec ID/Info : Picture based subtitle format used on BDs/HD-DVDs
  120. Duration : 1 h 30 min
  121. Bit rate : 14.9 kb/s
  122. Count of elements : 1466
  123. Stream size : 9.67 MiB (0%)
  124. Language : English
  125. Default : No
  126. Forced : No
  127. Original source medium : Blu-ray

  128. Text #3
  129. ID : 7
  130. ID in the original source medium : 4769 (0x12A1)
  131. Format : PGS
  132. Muxing mode : zlib
  133. Codec ID : S_HDMV/PGS
  134. Codec ID/Info : Picture based subtitle format used on BDs/HD-DVDs
  135. Duration : 1 h 26 min
  136. Bit rate : 9 894 b/s
  137. Count of elements : 986
  138. Stream size : 6.15 MiB (0%)
  139. Language : English
  140. Default : No
  141. Forced : No
  142. Original source medium : Blu-ray

  143. Text #4
  144. ID : 8
  145. ID in the original source medium : 4770 (0x12A2)
  146. Format : PGS
  147. Muxing mode : zlib
  148. Codec ID : S_HDMV/PGS
  149. Codec ID/Info : Picture based subtitle format used on BDs/HD-DVDs
  150. Duration : 1 h 36 min
  151. Bit rate : 7 679 b/s
  152. Count of elements : 918
  153. Stream size : 5.29 MiB (0%)
  154. Language : Chinese
  155. Default : No
  156. Forced : No
  157. Original source medium : Blu-ray

  158. Text #5
  159. ID : 9
  160. ID in the original source medium : 4771 (0x12A3)
  161. Format : PGS
  162. Muxing mode : zlib
  163. Codec ID : S_HDMV/PGS
  164. Codec ID/Info : Picture based subtitle format used on BDs/HD-DVDs
  165. Duration : 1 h 36 min
  166. Bit rate : 7 595 b/s
  167. Count of elements : 914
  168. Stream size : 5.23 MiB (0%)
  169. Language : Chinese
  170. Default : No
  171. Forced : No
  172. Original source medium : Blu-ray

  173. Text #6
  174. ID : 10
  175. ID in the original source medium : 4772 (0x12A4)
  176. Format : PGS
  177. Muxing mode : zlib
  178. Codec ID : S_HDMV/PGS
  179. Codec ID/Info : Picture based subtitle format used on BDs/HD-DVDs
  180. Duration : 1 h 36 min
  181. Bit rate : 7 190 b/s
  182. Count of elements : 916
  183. Stream size : 4.95 MiB (0%)
  184. Language : Chinese
  185. Default : No
  186. Forced : No
  187. Original source medium : Blu-ray

  188. Text #7
  189. ID : 11
  190. ID in the original source medium : 4773 (0x12A5)
  191. Format : PGS
  192. Muxing mode : zlib
  193. Codec ID : S_HDMV/PGS
  194. Codec ID/Info : Picture based subtitle format used on BDs/HD-DVDs
  195. Duration : 1 h 36 min
  196. Bit rate : 8 093 b/s
  197. Count of elements : 846
  198. Stream size : 5.57 MiB (0%)
  199. Language : French
  200. Default : No
  201. Forced : No
  202. Original source medium : Blu-ray

  203. Text #8
  204. ID : 12
  205. ID in the original source medium : 4774 (0x12A6)
  206. Format : PGS
  207. Muxing mode : zlib
  208. Codec ID : S_HDMV/PGS
  209. Codec ID/Info : Picture based subtitle format used on BDs/HD-DVDs
  210. Duration : 1 h 36 min
  211. Bit rate : 9 795 b/s
  212. Count of elements : 906
  213. Stream size : 6.74 MiB (0%)
  214. Language : Indonesian
  215. Default : No
  216. Forced : No
  217. Original source medium : Blu-ray

  218. Text #9
  219. ID : 13
  220. ID in the original source medium : 4775 (0x12A7)
  221. Format : PGS
  222. Muxing mode : zlib
  223. Codec ID : S_HDMV/PGS
  224. Codec ID/Info : Picture based subtitle format used on BDs/HD-DVDs
  225. Duration : 1 h 36 min
  226. Bit rate : 7 309 b/s
  227. Count of elements : 924
  228. Stream size : 5.03 MiB (0%)
  229. Language : Korean
  230. Default : No
  231. Forced : No
  232. Original source medium : Blu-ray

  233. Text #10
  234. ID : 14
  235. ID in the original source medium : 4776 (0x12A8)
  236. Format : PGS
  237. Muxing mode : zlib
  238. Codec ID : S_HDMV/PGS
  239. Codec ID/Info : Picture based subtitle format used on BDs/HD-DVDs
  240. Duration : 1 h 36 min
  241. Bit rate : 10.4 kb/s
  242. Count of elements : 910
  243. Stream size : 7.16 MiB (0%)
  244. Language : Malay
  245. Default : No
  246. Forced : No
  247. Original source medium : Blu-ray

  248. Text #11
  249. ID : 15
  250. ID in the original source medium : 4777 (0x12A9)
  251. Format : PGS
  252. Muxing mode : zlib
  253. Codec ID : S_HDMV/PGS
  254. Codec ID/Info : Picture based subtitle format used on BDs/HD-DVDs
  255. Duration : 1 h 36 min
  256. Bit rate : 9 196 b/s
  257. Count of elements : 890
  258. Stream size : 6.33 MiB (0%)
  259. Language : Portuguese
  260. Default : No
  261. Forced : No
  262. Original source medium : Blu-ray

  263. Text #12
  264. ID : 16
  265. ID in the original source medium : 4777 (0x12A9)
  266. Format : PGS
  267. Muxing mode : zlib
  268. Codec ID : S_HDMV/PGS
  269. Codec ID/Info : Picture based subtitle format used on BDs/HD-DVDs
  270. Duration : 1 h 36 min
  271. Bit rate : 85 b/s
  272. Count of elements : 8
  273. Stream size : 60.0 KiB (0%)
  274. Language : Portuguese
  275. Default : No
  276. Forced : No
  277. Original source medium : Blu-ray

  278. Text #13
  279. ID : 17
  280. ID in the original source medium : 4778 (0x12AA)
  281. Format : PGS
  282. Muxing mode : zlib
  283. Codec ID : S_HDMV/PGS
  284. Codec ID/Info : Picture based subtitle format used on BDs/HD-DVDs
  285. Duration : 1 h 36 min
  286. Bit rate : 9 040 b/s
  287. Count of elements : 896
  288. Stream size : 6.22 MiB (0%)
  289. Language : Spanish
  290. Default : No
  291. Forced : No
  292. Original source medium : Blu-ray

  293. Text #14
  294. ID : 18
  295. ID in the original source medium : 4778 (0x12AA)
  296. Format : PGS
  297. Muxing mode : zlib
  298. Codec ID : S_HDMV/PGS
  299. Codec ID/Info : Picture based subtitle format used on BDs/HD-DVDs
  300. Duration : 1 h 36 min
  301. Bit rate : 55 b/s
  302. Count of elements : 4
  303. Stream size : 38.8 KiB (0%)
  304. Language : Spanish
  305. Default : No
  306. Forced : No
  307. Original source medium : Blu-ray

  308. Text #15
  309. ID : 19
  310. ID in the original source medium : 4779 (0x12AB)
  311. Format : PGS
  312. Muxing mode : zlib
  313. Codec ID : S_HDMV/PGS
  314. Codec ID/Info : Picture based subtitle format used on BDs/HD-DVDs
  315. Duration : 1 h 36 min
  316. Bit rate : 8 157 b/s
  317. Count of elements : 914
  318. Stream size : 5.62 MiB (0%)
  319. Language : Thai
  320. Default : No
  321. Forced : No
  322. Original source medium : Blu-ray

  323. Text #16
  324. ID : 20
  325. ID in the original source medium : 4780 (0x12AC)
  326. Format : PGS
  327. Muxing mode : zlib
  328. Codec ID : S_HDMV/PGS
  329. Codec ID/Info : Picture based subtitle format used on BDs/HD-DVDs
  330. Duration : 1 h 36 min
  331. Bit rate : 71 b/s
  332. Count of elements : 6
  333. Stream size : 50.6 KiB (0%)
  334. Language : French
  335. Default : No
  336. Forced : No
  337. Original source medium : Blu-ray

  338. Text #17
  339. ID : 21
  340. ID in the original source medium : 4780 (0x12AC)
  341. Format : PGS
  342. Muxing mode : zlib
  343. Codec ID : S_HDMV/PGS
  344. Codec ID/Info : Picture based subtitle format used on BDs/HD-DVDs
  345. Duration : 1 h 36 min
  346. Bit rate : 71 b/s
  347. Count of elements : 6
  348. Stream size : 50.6 KiB (0%)
  349. Language : French
  350. Default : No
  351. Forced : No
  352. Original source medium : Blu-ray

  353. Menu
  354. 00:00:00.000 : en:Chapter 01
  355. 00:04:06.037 : en:Chapter 02
  356. 00:08:39.477 : en:Chapter 03
  357. 00:13:10.539 : en:Chapter 04
  358. 00:19:12.776 : en:Chapter 05
  359. 00:24:10.449 : en:Chapter 06
  360. 00:28:03.890 : en:Chapter 07
  361. 00:31:33.933 : en:Chapter 08
  362. 00:37:14.774 : en:Chapter 09
  363. 00:41:25.941 : en:Chapter 10
  364. 00:45:21.593 : en:Chapter 11
  365. 00:50:37.242 : en:Chapter 12
  366. 00:55:42.630 : en:Chapter 13
  367. 01:02:19.861 : en:Chapter 14
  368. 01:09:26.245 : en:Chapter 15
  369. 01:18:19.319 : en:Chapter 16
复制代码






                                       
                                       

                                       
                                       
                                       





回复

使用道具 举报

懒得打字嘛,点击右侧快捷回复 【右侧内容,后台自定义】
您需要登录后才可以回帖 登录 | 立即加入

本版积分规则

Archiver|小黑屋| 蓝光电影网 |网站地图

Copyright © 2021 Comsenz Inc. Powered by 蓝光电影网

蓝光电影网

本站内容由用户自主分享和转载自互联网,转载目的在于传递更多信息,并不代表本网赞同其观点和对其真实性负责。

如有侵权、违反国家法律政策行为,请联系我们,我们会第一时间及时清除和处理!

举报反馈邮箱:[email protected]

快速回复 返回顶部 返回列表