找回密码

蓝光电影网

查看: 553|回复: 2

[喜剧] X特遣队:全员集结 The.Suicide.Squad.2021.720p.BluRay.x264-WoAT 5.64GB

[复制链接]
蓝光币
682
发表于 2021-10-27 22:59:44 | 显示全部楼层 |阅读模式


◎译  名 X特遣队:全员集结/Suicide Squad 2/X特遣队2/新自杀小队/自杀小队2/自杀特攻(港)/自杀突击队2/自杀突击队集结(台)
◎片  名 The Suicide Squad
◎年  代 2021
◎产  地 美国,加拿大,英国
◎类  别 笑剧 / 行动 / 科幻 / 冒险
◎语  言 英语,西班牙语
◎上映日期 2021-07-28(法国) / 2021-08-06(美国)
◎豆瓣评分 8.0/10 from 169446 users
◎豆瓣链接 https://movie.douban.com/subject/26741632/
◎片  长 132分钟
◎导  演 詹姆斯·古恩 James Gunn
◎编  剧 詹姆斯·古恩 James Gunn / 约翰·奥斯特兰德 John Ostrander
◎主  演 玛格特·罗比 Margot Robbie
       伊德里斯·艾尔巴 Idris Elba
       约翰·塞纳 John Cena
       乔尔·金纳曼 Joel Kinnaman
       西尔维斯特·史泰龙 Sylvester Stallone
       维奥拉·戴维斯 Viola Davis
       大卫·达斯马齐连 David Dastmalchian
       迈克尔·鲁克 Michael Rooker
       杰·科特尼 Jai Courtney
       彼得·卡帕尔迪 Peter Capaldi
       艾莉丝·布拉加 Alice Braga
       皮特·戴维森 Pete Davidson
       华金·科西奥 Joaquín Cosio
       胡安·迭戈·博托 Juan Diego Botto
       斯托姆·瑞德 Storm Reid
       内森·菲利安 Nathan Fillion
       塔伊加·维迪提 Taika Waititi
       史蒂夫·阿吉 Steve Agee
       肖恩·古恩 Sean Gunn
       弗卢拉·博格 Flula Borg
       约翰·奥斯特兰德 John Ostrander
       黄美玲 Mayling Ng
       丹妮拉·曼希沃 Daniela Melchior
       史蒂芬·布莱克哈特 Stephen Blackehart
       詹尼佛·霍兰德 Jennifer Holland
       迪·布拉雷·贝克尔 Dee Bradley Baker
       雷·埃尔南德斯 Rey Hernandez
       雷纳尔多·法伯勒 Reinaldo Faberlle
       乔希·文图拉 Josh Ventura
       Gerardo Davila Gerardo Davila
       米凯拉·霍沃 Mikaela Hoover
       林恩·阿什 Lynne Ashe
       安德里娅·安德拉德 Andrea Andrade
       兰德尔·P·海文斯 Randall P. Havens
       迈克尔·艾伦·米利甘 Michael Aaron Milligan
       特伦斯·罗斯摩尔 Terence Rosemore
       娜塔莉·萨福兰 Natalia Safran
       詹姆斯·威廉·巴拉德 James William Ballard
       蒂莫西·卡尔 Timothy Carr
       玛丽索尔·科雷亚 Marisol Correa
       约翰·盖蒂尔 John Gettier
       麦克斯威尔·海史姑娘 Maxwell Highsmith
       洛伊德·考夫曼 Lloyd Kaufman
       迪索·拉莫斯 Diezel Ramos
       弗雷迪·史卓玛 Freddie Stroma
       维多利亚·佩吉·沃特金斯 Victoria Paige Watkins
◎标  签 DC | 美国 | 科幻 | 漫画改编 | 行动 | 犯罪 | 笑剧 | 2021
◎简  介


  关押在美梦牢狱的X特遣队成员获得一项可以减轻科罚的新使命,前往南美洲的科托马耳他岛国,摧毁纳粹期间遗留的约顿海姆牢狱和尝试室,它当前用于关押该国的政治犯并实施人体尝试。履利用命时代,X特遣队遭受巨型外星生物海星斯塔罗,并与它发生抵触。
  1. Video
  2. ID                                       : 1
  3. Format                                   : AVC
  4. Format/Info                              : Advanced Video Codec
  5. Format profile                           : [email protected]
  6. Format settings                          : CABAC / 8 Ref Frames
  7. Format settings, CABAC                   : Yes
  8. Format settings, Reference frames        : 8 frames
  9. Codec ID                                 : V_MPEG4/ISO/AVC
  10. Duration                                 : 2 h 12 min
  11. Bit rate                                 : 5 429 kb/s
  12. Width                                    : 1 280 pixels
  13. Height                                   : 674 pixels
  14. Display aspect ratio                     : 1.899
  15. Frame rate mode                          : Constant
  16. Frame rate                               : 23.976 (24000/1001/189150) FPS
  17. Color space                              : YUV
  18. Chroma subsampling                       : 4:2:0
  19. Bit depth                                : 8 bits
  20. Scan type                                : Progressive
  21. Bits/(Pixel*Frame)                       : 0.262
  22. Stream size                              : 5.01 GiB (89%)
  23. Writing library                          : x264 core 164 r3075 66a5bc1
  24. Encoding settings                        : cabac=1 / ref=8 / deblock=1:-3:-3 / analyse=0x3:0x133 / me=umh / subme=9 / psy=1 / psy_rd=1.00:0.00 / mixed_ref=1 / me_range=32 / chroma_me=1 / trellis=2 / 8x8dct=1 / cqm=0 / deadzone=21,11 / fast_pskip=0 / chroma_qp_offset=-2 / threads=16 / lookahead_threads=2 / sliced_threads=0 / nr=0 / decimate=0 / interlaced=0 / bluray_compat=0 / constrained_intra=0 / bframes=8 / b_pyramid=2 / b_adapt=2 / b_bias=0 / direct=3 / weightb=1 / open_gop=0 / weightp=2 / keyint=250 / keyint_min=23 / scenecut=40 / intra_refresh=0 / rc_lookahead=60 / rc=crf / mbtree=1 / crf=17.5 / qcomp=0.60 / qpmin=0 / qpmax=69 / qpstep=4 / ip_ratio=1.40 / aq=3:0.88
  25. Default                                  : Yes
  26. Forced                                   : No
  27. Color range                              : Limited
  28. Matrix coefficients                      : BT.709

  29. Audio
  30. ID                                       : 2
  31. Format                                   : AC-3
  32. Format/Info                              : Audio Coding 3
  33. Commercial name                          : Dolby Digital
  34. Codec ID                                 : A_AC3
  35. Duration                                 : 2 h 12 min
  36. Bit rate mode                            : Constant
  37. Bit rate                                 : 640 kb/s
  38. Channel(s)                               : 6 channels
  39. Channel layout                           : L R C LFE Ls Rs
  40. Sampling rate                            : 48.0 kHz
  41. Frame rate                               : 31.250 FPS (1536 SPF)
  42. Compression mode                         : Lossy
  43. Stream size                              : 605 MiB (10%)
  44. Title                                    : English
  45. Language                                 : English
  46. Service kind                             : Complete Main
  47. Default                                  : No
  48. Forced                                   : No

  49. Text #1
  50. ID                                       : 3
  51. Format                                   : PGS
  52. Muxing mode                              : zlib
  53. Codec ID                                 : S_HDMV/PGS
  54. Codec ID/Info                            : Picture based subtitle format used on BDs/HD-DVDs
  55. Duration                                 : 2 h 11 min
  56. Bit rate                                 : 36.5 kb/s
  57. Count of elements                        : 3892
  58. Stream size                              : 34.4 MiB (1%)
  59. Title                                    : English
  60. Language                                 : English
  61. Default                                  : No
  62. Forced                                   : No

  63. Text #2
  64. ID                                       : 4
  65. Format                                   : PGS
  66. Muxing mode                              : zlib
  67. Codec ID                                 : S_HDMV/PGS
  68. Codec ID/Info                            : Picture based subtitle format used on BDs/HD-DVDs
  69. Duration                                 : 2 h 11 min
  70. Bit rate                                 : 21.0 kb/s
  71. Count of elements                        : 2530
  72. Stream size                              : 19.8 MiB (0%)
  73. Title                                    : French
  74. Language                                 : French
  75. Default                                  : No
  76. Forced                                   : No

  77. Text #3
  78. ID                                       : 5
  79. Format                                   : PGS
  80. Muxing mode                              : zlib
  81. Codec ID                                 : S_HDMV/PGS
  82. Codec ID/Info                            : Picture based subtitle format used on BDs/HD-DVDs
  83. Duration                                 : 2 h 11 min
  84. Bit rate                                 : 31.4 kb/s
  85. Count of elements                        : 3756
  86. Stream size                              : 29.5 MiB (1%)
  87. Title                                    : Italian
  88. Language                                 : Italian
  89. Default                                  : No
  90. Forced                                   : No

  91. Text #4
  92. ID                                       : 6
  93. Format                                   : PGS
  94. Muxing mode                              : zlib
  95. Codec ID                                 : S_HDMV/PGS
  96. Codec ID/Info                            : Picture based subtitle format used on BDs/HD-DVDs
  97. Duration                                 : 2 h 9 min
  98. Bit rate                                 : 24.0 kb/s
  99. Count of elements                        : 2408
  100. Stream size                              : 22.3 MiB (0%)
  101. Title                                    : Spanish
  102. Language                                 : Spanish
  103. Default                                  : No
  104. Forced                                   : No

  105. Text #5
  106. ID                                       : 7
  107. Format                                   : PGS
  108. Muxing mode                              : zlib
  109. Codec ID                                 : S_HDMV/PGS
  110. Codec ID/Info                            : Picture based subtitle format used on BDs/HD-DVDs
  111. Duration                                 : 2 h 9 min
  112. Bit rate                                 : 25.0 kb/s
  113. Count of elements                        : 2590
  114. Stream size                              : 23.2 MiB (0%)
  115. Title                                    : Portuguese
  116. Language                                 : Portuguese
  117. Default                                  : No
  118. Forced                                   : No

  119. Text #6
  120. ID                                       : 8
  121. Format                                   : PGS
  122. Muxing mode                              : zlib
  123. Codec ID                                 : S_HDMV/PGS
  124. Codec ID/Info                            : Picture based subtitle format used on BDs/HD-DVDs
  125. Duration                                 : 2 h 4 min
  126. Bit rate                                 : 1 870 b/s
  127. Count of elements                        : 200
  128. Stream size                              : 1.67 MiB (0%)
  129. Title                                    : French (forced text)
  130. Language                                 : French
  131. Default                                  : No
  132. Forced                                   : No

  133. Text #7
  134. ID                                       : 9
  135. Format                                   : PGS
  136. Muxing mode                              : zlib
  137. Codec ID                                 : S_HDMV/PGS
  138. Codec ID/Info                            : Picture based subtitle format used on BDs/HD-DVDs
  139. Duration                                 : 2 h 5 min
  140. Bit rate                                 : 1 777 b/s
  141. Count of elements                        : 216
  142. Stream size                              : 1.59 MiB (0%)
  143. Title                                    : Italian (forced text)
  144. Language                                 : Italian
  145. Default                                  : No
  146. Forced                                   : No

  147. Text #8
  148. ID                                       : 10
  149. Format                                   : PGS
  150. Muxing mode                              : zlib
  151. Codec ID                                 : S_HDMV/PGS
  152. Codec ID/Info                            : Picture based subtitle format used on BDs/HD-DVDs
  153. Duration                                 : 2 h 4 min
  154. Bit rate                                 : 423 b/s
  155. Count of elements                        : 50
  156. Stream size                              : 387 KiB (0%)
  157. Title                                    : Spanish (forced text)
  158. Language                                 : Spanish
  159. Default                                  : No
  160. Forced                                   : No

  161. Text #9
  162. ID                                       : 11
  163. Format                                   : PGS
  164. Muxing mode                              : zlib
  165. Codec ID                                 : S_HDMV/PGS
  166. Codec ID/Info                            : Picture based subtitle format used on BDs/HD-DVDs
  167. Duration                                 : 2 h 4 min
  168. Bit rate                                 : 1 851 b/s
  169. Count of elements                        : 216
  170. Stream size                              : 1.65 MiB (0%)
  171. Title                                    : Portuguese (forced text)
  172. Language                                 : Portuguese
  173. Default                                  : No
  174. Forced                                   : No

  175. Menu
  176. 00:00:00.000                             : Chapter 01
  177. 00:14:25.615                             : Chapter 02
  178. 00:22:08.035                             : Chapter 03
  179. 00:31:31.973                             : Chapter 04
  180. 00:40:48.696                             : Chapter 05
  181. 00:50:20.017                             : Chapter 06
  182. 01:01:09.666                             : Chapter 07
  183. 01:10:05.868                             : Chapter 08
  184. 01:19:44.488                             : Chapter 09
  185. 01:29:00.669                             : Chapter 10
  186. 01:40:41.160                             : Chapter 11
  187. 01:50:37.130                             : Chapter 12
  188. 01:59:28.536                             : Chapter 13
复制代码





                                       
                                       

                                       
                                       
                                       




回复

使用道具 举报

蓝光币
421
发表于 2021-10-29 00:50:40 | 显示全部楼层
楼主发贴辛苦了,谢谢楼主分享!我觉得蓝光电影网是注册对了!
回复 支持 反对

使用道具 举报

蓝光币
40
发表于 2021-11-1 15:03:37 | 显示全部楼层
谢谢楼主分享
回复 支持 反对

使用道具 举报

懒得打字嘛,点击右侧快捷回复 【右侧内容,后台自定义】
您需要登录后才可以回帖 登录 | 立即加入

本版积分规则

Archiver|小黑屋| 蓝光电影网 |网站地图

Copyright © 2021 Comsenz Inc. Powered by 蓝光电影网

蓝光电影网

本站内容由用户自主分享和转载自互联网,转载目的在于传递更多信息,并不代表本网赞同其观点和对其真实性负责。

如有侵权、违反国家法律政策行为,请联系我们,我们会第一时间及时清除和处理!

举报反馈邮箱:[email protected]

快速回复 返回顶部 返回列表