找回密码

蓝光电影网

查看: 388|回复: 1

[10bit.HDR] 静水城/斯蒂尔沃特 Stillwater.2021.2160p.AMZN.WEB-DL.x265.10bit.HDR10Plus.DTS-HD.MA.5.1-NOGRP 18.36GB

[复制链接]
蓝光币
733
发表于 2021-10-27 23:23:15 | 显示全部楼层 |阅读模式


◎译  名 静水城/斯蒂尔沃特/止水/静水
◎片  名 Stillwater
◎年  代 2021
◎产  地 美国
◎类  别 剧情 / 惊悚 / 犯罪
◎语  言 英语
◎上映日期 2021-07-08(戛纳电影节) / 2021-07-30(美国)
◎豆瓣评分 7.1/10 from 8043 users
◎豆瓣链接 https://movie.douban.com/subject/34614665/
◎片  长 139分钟
◎导  演 汤姆·麦卡锡 Tom McCarthy
◎编  剧 汤姆·麦卡锡 Tom McCarthy / 马库斯·辛奇 Marcus Hinchey / 托马斯·彼得葛恩 Thomas Bidegain / 诺亚·德勃雷 Noé Debré
◎主  演 马特·达蒙 Matt Damon
       卡米尔·科坦 Camille Cottin
       阿比盖尔·布雷斯林 Abigail Breslin
       利鲁·肖沃 Lilou Siauvaud
       狄安娜·杜纳甘 Deanna Dunagan
       伊迪尔·阿祖格利 Idir Azougli
       安娜·勒尼 Anne Le Ny
       茂萨·马斯克里 Moussa Maaskri
       伊莎贝尔·塔纳克 Isabelle Tanakil
       奈德拉·阿亚迪 Naidra Ayadi
       吉尔伯特·特拉尼亚 Gilbert Traina
       威廉·纳迪兰 William Nadylam
       沙扎德·拉蒂夫 Shazad Latif
       米歇尔?邦波 Michel Bompoil
       莎拉·布鲁克斯 Sarah Brooks
       埃里克·斯达克 Eric Starkey
       罗伯特·皮特斯 Robert Peters
       Olivier Cruveiller Olivier Cruveiller
◎标  签 剧情 | 美国 | 犯罪 | 2021 | 悬疑 | 欧美 | 电影 | 惊悚
◎简  介


  影片围绕一个来自俄克拉荷马州的美国石油钻井平台钻工比尔(达蒙饰)展开。他不能不前往马赛,造访他久未碰面却锒铛入狱的女儿(布雷斯林饰),他的女儿坚称并没有犯下谋杀罪。面临说话的障碍、文化的差别,以及复杂的法令制度,比尔决意孤注一掷拯救他的女儿。而在这个进程中,他与一位当地的女性和她的小女儿建立了友谊,也起头了小我的摸索之旅,并获得了更大的归属感。
  1. Video
  2. ID                                       : 1
  3. Format                                   : HEVC
  4. Format/Info                              : High Efficiency Video Coding
  5. Format profile                           : Main [email protected]@Main
  6. HDR format                               : SMPTE ST 2094 App 4, Version 1, HDR10+ Profile B compatible
  7. Codec ID                                 : V_MPEGH/ISO/HEVC
  8. Duration                                 : 2 h 19 min
  9. Bit rate                                 : 14.8 Mb/s
  10. Width                                    : 3 840 pixels
  11. Height                                   : 2 080 pixels
  12. Display aspect ratio                     : 1.85:1
  13. Frame rate mode                          : Constant
  14. Frame rate                               : 23.976 (24000/1001/189150) FPS
  15. Color space                              : YUV
  16. Chroma subsampling                       : 4:2:0
  17. Bit depth                                : 10 bits
  18. Bits/(Pixel*Frame)                       : 0.077
  19. Stream size                              : 14.4 GiB (79%)
  20. Default                                  : Yes
  21. Forced                                   : No
  22. Color range                              : Limited
  23. Color primaries                          : BT.2020
  24. Transfer characteristics                 : PQ
  25. Matrix coefficients                      : BT.2020 non-constant
  26. Mastering display color primaries        : Display P3
  27. Mastering display luminance              : min: 0.0050 cd/m2, max: 1000 cd/m2
  28. Maximum Content Light Level              : 987 cd/m2
  29. Maximum Frame-Average Light Level        : 137 cd/m2
  30. Audio #1
  31. ID                                       : 2
  32. ID in the original source medium         : 4352 (0x1100)
  33. Format                                   : DTS XLL
  34. Format/Info                              : Digital Theater Systems
  35. Commercial name                          : DTS-HD Master Audio
  36. Codec ID                                 : A_DTS
  37. Duration                                 : 2 h 18 min
  38. Bit rate mode                            : Variable
  39. Bit rate                                 : 3 412 kb/s
  40. Channel(s)                               : 6 channels
  41. Channel layout                           : C L R Ls Rs LFE
  42. Sampling rate                            : 48.0 kHz
  43. Frame rate                               : 93.750 FPS (512 SPF)
  44. Bit depth                                : 24 bits
  45. Compression mode                         : Lossless
  46. Delay relative to video                  : 24 s 400 ms
  47. Stream size                              : 3.31 GiB (18%)
  48. Title                                    : DTS-HD MA 5.1
  49. Language                                 : English
  50. Default                                  : Yes
  51. Forced                                   : No
  52. Original source medium                   : Blu-ray
  53. Audio #2
  54. ID                                       : 3
  55. Format                                   : E-AC-3
  56. Format/Info                              : Enhanced AC-3
  57. Commercial name                          : Dolby Digital Plus
  58. Codec ID                                 : A_EAC3
  59. Duration                                 : 2 h 19 min
  60. Bit rate mode                            : Constant
  61. Bit rate                                 : 640 kb/s
  62. Channel(s)                               : 6 channels
  63. Channel layout                           : L R C LFE Ls Rs
  64. Sampling rate                            : 48.0 kHz
  65. Frame rate                               : 31.250 FPS (1536 SPF)
  66. Compression mode                         : Lossy
  67. Stream size                              : 638 MiB (3%)
  68. Title                                    : English
  69. Language                                 : English
  70. Service kind                             : Complete Main
  71. Default                                  : No
  72. Forced                                   : No
  73. Text #1
  74. ID                                       : 4
  75. Format                                   : UTF-8
  76. Codec ID                                 : S_TEXT/UTF8
  77. Codec ID/Info                            : UTF-8 Plain Text
  78. Duration                                 : 2 h 9 min
  79. Bit rate                                 : 41 b/s
  80. Count of elements                        : 1245
  81. Stream size                              : 39.3 KiB (0%)
  82. Title                                    : SRT
  83. Language                                 : English
  84. Default                                  : Yes
  85. Forced                                   : No
  86. Text #2
  87. ID                                       : 5
  88. Format                                   : UTF-8
  89. Codec ID                                 : S_TEXT/UTF8
  90. Codec ID/Info                            : UTF-8 Plain Text
  91. Duration                                 : 2 h 1 min
  92. Bit rate                                 : 10 b/s
  93. Count of elements                        : 273
  94. Stream size                              : 9.15 KiB (0%)
  95. Title                                    : Forced
  96. Language                                 : English
  97. Default                                  : No
  98. Forced                                   : Yes
  99. Text #3
  100. ID                                       : 6
  101. Format                                   : UTF-8
  102. Codec ID                                 : S_TEXT/UTF8
  103. Codec ID/Info                            : UTF-8 Plain Text
  104. Duration                                 : 2 h 9 min
  105. Bit rate                                 : 52 b/s
  106. Count of elements                        : 1818
  107. Stream size                              : 50.3 KiB (0%)
  108. Title                                    : Latin American
  109. Language                                 : Spanish
  110. Default                                  : No
  111. Forced                                   : No
  112. Text #4
  113. ID                                       : 7
  114. Format                                   : UTF-8
  115. Codec ID                                 : S_TEXT/UTF8
  116. Codec ID/Info                            : UTF-8 Plain Text
  117. Duration                                 : 2 h 16 min
  118. Bit rate                                 : 45 b/s
  119. Count of elements                        : 1400
  120. Stream size                              : 45.3 KiB (0%)
  121. Language                                 : Hungarian
  122. Default                                  : No
  123. Forced                                   : No
  124. Text #5
  125. ID                                       : 8
  126. Format                                   : UTF-8
  127. Codec ID                                 : S_TEXT/UTF8
  128. Codec ID/Info                            : UTF-8 Plain Text
  129. Duration                                 : 2 h 17 min
  130. Bit rate                                 : 48 b/s
  131. Count of elements                        : 1661
  132. Stream size                              : 48.6 KiB (0%)
  133. Title                                    : Brazilian
  134. Language                                 : Portuguese
  135. Default                                  : No
  136. Forced                                   : No
  137. Text #6
  138. ID                                       : 9
  139. Format                                   : UTF-8
  140. Codec ID                                 : S_TEXT/UTF8
  141. Codec ID/Info                            : UTF-8 Plain Text
  142. Duration                                 : 2 h 10 min
  143. Bit rate                                 : 118 b/s
  144. Count of elements                        : 1410
  145. Stream size                              : 113 KiB (0%)
  146. Language                                 : Thai
  147. Default                                  : No
  148. Forced                                   : No
  149. Menu
  150. 00:00:00.000                             : en:Chapter 01
  151. 00:08:14.786                             : en:Chapter 02
  152. 00:13:21.301                             : en:Chapter 03
  153. 00:22:41.361                             : en:Chapter 04
  154. 00:32:48.218                             : en:Chapter 05
  155. 00:38:09.914                             : en:Chapter 06
  156. 00:44:26.750                             : en:Chapter 07
  157. 00:49:29.886                             : en:Chapter 08
  158. 00:58:15.412                             : en:Chapter 09
  159. 01:03:43.573                             : en:Chapter 10
  160. 01:08:46.084                             : en:Chapter 11
  161. 01:16:30.298                             : en:Chapter 12
  162. 01:25:28.336                             : en:Chapter 13
  163. 01:32:40.643                             : en:Chapter 14
  164. 01:39:43.274                             : en:Chapter 15
  165. 01:45:51.559                             : en:Chapter 16
  166. 01:52:08.061                             : en:Chapter 17
  167. 02:01:21.489                             : en:Chapter 18
  168. 02:05:55.764                             : en:Chapter 19
  169. 02:12:32.869                             : en:Chapter 20
复制代码
[size=10.6667px]
[size=10.6667px]
[size=10.6667px]



                                       
                                       

                                       
                                       
                                       




回复

使用道具 举报

蓝光币
6
发表于 2021-10-28 08:32:07 | 显示全部楼层

我看不错噢 谢谢楼主!蓝光电影网越来越好!
回复 支持 反对

使用道具 举报

懒得打字嘛,点击右侧快捷回复 【右侧内容,后台自定义】
您需要登录后才可以回帖 登录 | 立即加入

本版积分规则

Archiver|小黑屋| 蓝光电影网 |网站地图

Copyright © 2021 Comsenz Inc. Powered by 蓝光电影网

蓝光电影网

本站内容由用户自主分享和转载自互联网,转载目的在于传递更多信息,并不代表本网赞同其观点和对其真实性负责。

如有侵权、违反国家法律政策行为,请联系我们,我们会第一时间及时清除和处理!

举报反馈邮箱:[email protected]

快速回复 返回顶部 返回列表