找回密码

蓝光电影网

查看: 123|回复: 0

[剧情] 负有责任的孩子/负罪少年 Responsible.Child.2019.1080p.HBO.WEBRip.AAC2.0.x264-playWEB 4.46GB

[复制链接]
蓝光币
682
发表于 2021-10-28 00:31:22 | 显示全部楼层 |阅读模式


◎译  名 负有义务的孩子/负罪少年
◎片  名 Responsible Child
◎年  代 2019
◎产  地 英国
◎类  别 剧情 / 犯罪
◎语  言 英语
◎上映日期 2019-12-16(英国)
◎豆瓣评分 6.9/10 from 260 users
◎豆瓣链接 https://movie.douban.com/subject/34878176/
◎片  长 90分钟
◎主  演 米歇尔·费尔利 Michelle Fairley
       汤姆·伯克 Tom Burke
       斯蒂芬·坎贝尔·莫尔 Stephen Campbell Moore
       欧文·麦克唐纳 Owen McDonnell
       肖恩·丁沃 Shaun Dingwall
       詹姆斯·特拉佩 James Tarpey
◎标  签 英国 | 犯罪 | 实在事务改编 | 剧情 | 2019 | 法令 | 英国电影 | 汤姆·伯克
◎简  介


  该剧以实在事务为根本,分为两个时候段,报告了致使谋杀和审判的事务。雷(巴勒特饰)和他23岁的弟弟内森(塔皮饰)在刺伤母亲的朋友后被捕。不管什么情况下致使孩子杀人,法令是明白的:刑事义务的年龄是10岁,12岁时,雷必须在成人法庭接管审判。
  
  搬到他母亲维罗妮卡的家和他23岁的哥哥内森在一路,雷目击了一场争持,升级为他母亲的朋友斯科特对他的兄弟停止的暴力斧头进犯。
  
  虽然被拘系和审判,斯科特被无罪开释,并很快返回住在家里。家庭生活起头恶化,内森变得孤僻,不关心自己的健康和表面,而雷越来越承当起照顾的脚色——为了内森,为了他的母亲,为了他的兄弟姐妹,维罗妮卡和斯科特的年幼的孩子。一天早晨,当男孩们听说斯科特威胁要再拿斧头时,兄弟俩对他策动了攻击,残暴地杀死了他。
  
  谋杀发生后,两兄弟被拘系,并被控告犯有谋杀罪。内森和雷是分隔的,由于他们进入司法系统,并满足各自的法令团队。Ray的团队由辩解律师Kerry Stephens带领,负责Ray在寄养家庭的安置(由于他的年龄和“被照顾的孩子”的身份),期待他和他的兄弟一路在成人法庭受审。
  
  克里和她的团队预备了雷的辩解——他们会辩论说,雷在攻击当晚落空了控制,应当被判过失杀人罪而不是谋杀罪。随着审判的起头,他们发现内森的辩解团队已经决议内森不应当作证,让雷单独站在证人席上,为自己的辩解供给证据。
  1. Video
  2. ID                                       : 1
  3. Format                                   : AVC
  4. Format/Info                              : Advanced Video Codec
  5. Format profile                           : [email protected]
  6. Format settings                          : CABAC / 1 Ref Frames
  7. Format settings, CABAC                   : Yes
  8. Format settings, Reference frames        : 1 frame
  9. Codec ID                                 : V_MPEG4/ISO/AVC
  10. Duration                                 : 1 h 26 min
  11. Bit rate mode                            : Variable
  12. Bit rate                                 : 7 273 kb/s
  13. Maximum bit rate                         : 7 400 kb/s
  14. Width                                    : 1 920 pixels
  15. Height                                   : 1 080 pixels
  16. Display aspect ratio                     : 16:9
  17. Frame rate mode                          : Constant
  18. Frame rate                               : 25.000 FPS
  19. Color space                              : YUV
  20. Chroma subsampling                       : 4:2:0
  21. Bit depth                                : 8 bits
  22. Scan type                                : Progressive
  23. Bits/(Pixel*Frame)                       : 0.140
  24. Stream size                              : 4.38 GiB (98%)
  25. Default                                  : Yes
  26. Forced                                   : No
  27. Color range                              : Limited
  28. Color primaries                          : BT.709
  29. Transfer characteristics                 : BT.709
  30. Matrix coefficients                      : BT.709
  31. Audio
  32. ID                                       : 2
  33. Format                                   : AAC LC
  34. Format/Info                              : Advanced Audio Codec Low Complexity
  35. Codec ID                                 : A_AAC-2
  36. Duration                                 : 1 h 26 min
  37. Bit rate                                 : 129 kb/s
  38. Channel(s)                               : 2 channels
  39. Channel layout                           : L R
  40. Sampling rate                            : 48.0 kHz
  41. Frame rate                               : 46.875 FPS (1024 SPF)
  42. Compression mode                         : Lossy
  43. Stream size                              : 79.2 MiB (2%)
  44. Language                                 : English
  45. Default                                  : Yes
  46. Forced                                   : No
  47. Text #1
  48. ID                                       : 3
  49. Format                                   : UTF-8
  50. Codec ID                                 : S_TEXT/UTF8
  51. Codec ID/Info                            : UTF-8 Plain Text
  52. Duration                                 : 1 h 24 min
  53. Bit rate                                 : 47 b/s
  54. Count of elements                        : 921
  55. Stream size                              : 29.3 KiB (0%)
  56. Language                                 : Romanian
  57. Default                                  : No
  58. Forced                                   : No
  59. Text #2
  60. ID                                       : 4
  61. Format                                   : UTF-8
  62. Codec ID                                 : S_TEXT/UTF8
  63. Codec ID/Info                            : UTF-8 Plain Text
  64. Duration                                 : 1 h 24 min
  65. Bit rate                                 : 45 b/s
  66. Count of elements                        : 921
  67. Stream size                              : 28.0 KiB (0%)
  68. Language                                 : English
  69. Default                                  : No
  70. Forced                                   : No
  71. Text #3
  72. ID                                       : 5
  73. Format                                   : UTF-8
  74. Codec ID                                 : S_TEXT/UTF8
  75. Codec ID/Info                            : UTF-8 Plain Text
  76. Duration                                 : 1 h 25 min
  77. Bit rate                                 : 44 b/s
  78. Count of elements                        : 935
  79. Stream size                              : 27.6 KiB (0%)
  80. Language                                 : Hungarian
  81. Default                                  : No
  82. Forced                                   : No
复制代码







                                       
                                       

                                       
                                       
                                       




回复

使用道具 举报

懒得打字嘛,点击右侧快捷回复 【右侧内容,后台自定义】
您需要登录后才可以回帖 登录 | 立即加入

本版积分规则

Archiver|小黑屋| 蓝光电影网 |网站地图

Copyright © 2021 Comsenz Inc. Powered by 蓝光电影网

蓝光电影网

本站内容由用户自主分享和转载自互联网,转载目的在于传递更多信息,并不代表本网赞同其观点和对其真实性负责。

如有侵权、违反国家法律政策行为,请联系我们,我们会第一时间及时清除和处理!

举报反馈邮箱:[email protected]

快速回复 返回顶部 返回列表