找回密码

蓝光电影网

查看: 321|回复: 1

[剧情] 无主之人 No.Man.of.God.2021.1080p.BluRay.x264-PiGNUS 10.18GB

[复制链接]
蓝光币
682
发表于 2021-10-28 08:42:24 | 显示全部楼层 |阅读模式


◎译  名 无主之人
◎片  名 No Man Of God
◎年  代 2021
◎产  地 美国
◎类  别 剧情 / 悬疑 / 列传 / 犯罪
◎语  言 英语
◎上映日期 2021-06-11(美国)
◎豆瓣评分 6.6/10 from 228 users
◎豆瓣链接 https://movie.douban.com/subject/35101438/
◎片  长 100分钟
◎编  剧 C·罗伯特·嘉吉 C. Robert Cargill
◎主  演 伊利亚·伍德 Elijah Wood
       卢克·柯比 Luke Kirby
       阿莱卡萨·帕拉迪诺 Aleksa Palladino
       罗伯特·帕特里克 Robert Patrick
       W·厄尔·布朗 W. Earl Brown
       克里斯蒂安·克莱门松 Christian Clemenson
       雨果·阿姆斯特朗 Hugo Armstrong
       尼卡恩·罗宾逊 Nican Robinson
       威尔·哈里斯 Will Harris
       Jarrett Sleeper Jarrett Sleeper
       道格·考克斯 Doug Cox
       汤姆·维图 Tom Virtue
◎标  签 犯罪 | 美国 | 2021 | 剧情 | 悬疑 | 美国电影 | 惊悚 | 列传
◎简  介


  伊利亚·伍德将主演犯罪题材惊悚片[无主之人](No Man Of God,暂译)。Amber Sealey执导,C·罗伯特·嘉吉([邪恶])操刀剧本。影片设定在一个零丁的审判室中,故事按照FBI心理分析师比尔·哈格迈尔(伍德饰)与连环杀手邦迪于1984年至1989年之间的对话笔墨摘录改编,影片将具体先容邦迪在死囚牢房最初几年间,两人之间复杂的关系。
  1. Video
  2. ID                                       : 1
  3. Format                                   : AVC
  4. Format/Info                              : Advanced Video Codec
  5. Format profile                           : [email protected]
  6. Format settings                          : CABAC / 5 Ref Frames
  7. Format settings, CABAC                   : Yes
  8. Format settings, Reference frames        : 5 frames
  9. Codec ID                                 : V_MPEG4/ISO/AVC
  10. Duration                                 : 1 h 40 min
  11. Bit rate                                 : 11.4 Mb/s
  12. Width                                    : 1 920 pixels
  13. Height                                   : 800 pixels
  14. Display aspect ratio                     : 2.40:1
  15. Frame rate mode                          : Constant
  16. Frame rate                               : 23.976 (24000/1001/189150) FPS
  17. Color space                              : YUV
  18. Chroma subsampling                       : 4:2:0
  19. Bit depth                                : 8 bits
  20. Scan type                                : Progressive
  21. Bits/(Pixel*Frame)                       : 0.311
  22. Stream size                              : 8.01 GiB (79%)
  23. Writing library                          : x264 core 164 r3075 66a5bc1
  24. Encoding settings                        : cabac=1 / ref=5 / deblock=1:-3:-3 / analyse=0x3:0x133 / me=umh / subme=9 / psy=1 / psy_rd=1.00:0.00 / mixed_ref=1 / me_range=16 / chroma_me=1 / trellis=2 / 8x8dct=1 / cqm=0 / deadzone=21,11 / fast_pskip=1 / chroma_qp_offset=-2 / threads=25 / lookahead_threads=2 / sliced_threads=0 / nr=0 / decimate=1 / interlaced=0 / bluray_compat=0 / constrained_intra=0 / bframes=3 / b_pyramid=2 / b_adapt=2 / b_bias=0 / direct=3 / weightb=1 / open_gop=0 / weightp=2 / keyint=250 / keyint_min=23 / scenecut=40 / intra_refresh=0 / rc_lookahead=60 / rc=crf / mbtree=1 / crf=17.7 / qcomp=0.60 / qpmin=0 / qpmax=69 / qpstep=4 / ip_ratio=1.40 / aq=1:1.00
  25. Default                                  : Yes
  26. Forced                                   : No

  27. Audio
  28. ID                                       : 2
  29. Format                                   : DTS XLL
  30. Format/Info                              : Digital Theater Systems
  31. Commercial name                          : DTS-HD Master Audio
  32. Codec ID                                 : A_DTS
  33. Duration                                 : 1 h 40 min
  34. Bit rate mode                            : Variable
  35. Bit rate                                 : 3 064 kb/s
  36. Channel(s)                               : 6 channels
  37. Channel layout                           : C L R Ls Rs LFE
  38. Sampling rate                            : 48.0 kHz
  39. Frame rate                               : 93.750 FPS (512 SPF)
  40. Bit depth                                : 24 bits
  41. Compression mode                         : Lossless
  42. Stream size                              : 2.14 GiB (21%)
  43. Language                                 : English
  44. Default                                  : Yes
  45. Forced                                   : No

  46. Text #1
  47. ID                                       : 3
  48. Format                                   : PGS
  49. Muxing mode                              : zlib
  50. Codec ID                                 : S_HDMV/PGS
  51. Codec ID/Info                            : Picture based subtitle format used on BDs/HD-DVDs
  52. Duration                                 : 1 h 39 min
  53. Bit rate                                 : 33.5 kb/s
  54. Count of elements                        : 3689
  55. Stream size                              : 23.9 MiB (0%)
  56. Title                                    : English SDH
  57. Language                                 : English
  58. Default                                  : No
  59. Forced                                   : No

  60. Text #2
  61. ID                                       : 4
  62. Format                                   : PGS
  63. Muxing mode                              : zlib
  64. Codec ID                                 : S_HDMV/PGS
  65. Codec ID/Info                            : Picture based subtitle format used on BDs/HD-DVDs
  66. Duration                                 : 1 h 35 min
  67. Bit rate                                 : 33.7 kb/s
  68. Count of elements                        : 3258
  69. Stream size                              : 22.9 MiB (0%)
  70. Title                                    : French
  71. Language                                 : French
  72. Default                                  : No
  73. Forced                                   : No

  74. Text #3
  75. ID                                       : 5
  76. Format                                   : PGS
  77. Muxing mode                              : zlib
  78. Codec ID                                 : S_HDMV/PGS
  79. Codec ID/Info                            : Picture based subtitle format used on BDs/HD-DVDs
  80. Duration                                 : 1 h 35 min
  81. Bit rate                                 : 29.0 kb/s
  82. Count of elements                        : 3100
  83. Stream size                              : 19.8 MiB (0%)
  84. Title                                    : Spanish
  85. Language                                 : Spanish
  86. Default                                  : No
  87. Forced                                   : No

  88. Menu
  89. 00:00:00.000                             : en:Chapter 01
  90. 00:24:54.702                             : en:Chapter 02
  91. 00:35:32.630                             : en:Chapter 03
  92. 00:47:46.405                             : en:Chapter 04
  93. 01:00:58.321                             : en:Chapter 05
  94. 01:15:18.305                             : en:Chapter 06
  95. 01:21:24.880                             : en:Chapter 07
  96. 01:35:47.367                             : en:Chapter 08
  97. 01:40:13.090                             : en:Chapter 09
复制代码





                                       
                                       

                                       
                                       
                                       




回复

使用道具 举报

蓝光币
21
发表于 2021-11-14 20:56:57 | 显示全部楼层
有中文字幕吗~
回复 支持 反对

使用道具 举报

懒得打字嘛,点击右侧快捷回复 【右侧内容,后台自定义】
您需要登录后才可以回帖 登录 | 立即加入

本版积分规则

Archiver|小黑屋| 蓝光电影网 |网站地图

Copyright © 2021 Comsenz Inc. Powered by 蓝光电影网

蓝光电影网

本站内容由用户自主分享和转载自互联网,转载目的在于传递更多信息,并不代表本网赞同其观点和对其真实性负责。

如有侵权、违反国家法律政策行为,请联系我们,我们会第一时间及时清除和处理!

举报反馈邮箱:[email protected]

快速回复 返回顶部 返回列表