找回密码

蓝光电影网

查看: 389|回复: 1

[8bit.SDR] 黑夜传说3:狼族崛起/决战异世界前传:鬼哭狼嚎 Underworld.Rise.of.the.Lycans.2009.2160p.BluRay.x264.8bit.SDR.DTS-HD.MA.TrueHD.7.1.Atmos-SWTYBLZ 39.07GB

[复制链接]
蓝光币
682
发表于 2021-10-28 09:24:39 | 显示全部楼层 |阅读模式


◎译  名 黑夜传闻3:狼族突起/决战异天下前传:鬼哭狼嚎(台)/妖夜寻狼前传之狼神诞生/妖夜寻狼前传之狼神诞生(港)/黑夜传闻前传:狼族复兴
◎片  名 Underworld: Rise of the Lycans
◎年  代 2009
◎产  地 美国,新西兰
◎类  别 行动 / 惊悚 / 奇异
◎语  言 英语
◎上映日期 2009-01-23(美国)
◎豆瓣评分 6.8/10 from 45268 users
◎豆瓣链接 https://movie.douban.com/subject/2132941/
◎片  长 92 分钟
◎导  演 帕特里克·塔特普洛斯 Patrick Tatopoulos
◎编  剧 丹尼·麦克布莱德 Danny McBride / 伦·怀斯曼 Len Wiseman / 凯文·格雷维奥斯 Kevin Grevioux / 德克·布莱克曼 Dirk Blackman / 霍华德·麦凯恩 Howard McCain
◎主  演 麦克·辛 Michael Sheen
       比尔·奈伊 Bill Nighy
       罗娜·迈特拉 Rhona Mitra
       斯蒂文·麦金托什 Steven Mackintosh
       凯文·格雷维奥斯 Kevin Grevioux
       伊丽莎白·霍桑 Elizabeth Hawthorne
       蒂莫西拉比 Timothy Raby
       贾里德·特纳 Jared Turner
       Kurt Carley Kurt Carley
       坦尼亚·诺兰 Tania Nolan
       克雷格·帕克 Craig Parker
       山恩·布罗利 Shane Brolly
       马克·米钦森 Mark Mitchinson
◎标  签 吸血鬼 | 魔幻 | 美国 | 狼人 | 行动 | 黑夜传闻 | 美国电影 | 2009
◎简  介


  悠远的黑暗世纪,柯文诺斯的子孙一分为二。血族在维多(比利·奈伊 Bill Nighy 饰)的带领下独行全国,强大的吸血兵团压制极具沾染性且没法进化成人的残暴狼族。直到某天,一个奇异的生命诞生,改变了这两个家属的命运。一只母狼诞下有着人类表面的狼人路西安(麦克·辛 Michael Sheen 饰),维多窥见狼人身材内的强大气力,因而对其大量滋生,并将狼人纳为办事血族的仆从。仆从的磨难永无终结,而在这一进程中路西安还冒全国之大不韪与维多的女儿桑雅(罗娜·迈特拉 Rhona Mitra 饰)偷偷相恋。
  
  渴望自在的路西安终极想法解开维多对自己的禁锢,狼人与血族延续数百年的战争亦由此拉开序幕……
  1. Video
  2. ID                                       : 1
  3. Format                                   : AVC
  4. Format/Info                              : Advanced Video Codec
  5. Format profile                           : [email protected]
  6. Format settings                          : CABAC / 5 Ref Frames
  7. Format settings, CABAC                   : Yes
  8. Format settings, Reference frames        : 5 frames
  9. Codec ID                                 : V_MPEG4/ISO/AVC
  10. Duration                                 : 1 h 32 min
  11. Bit rate                                 : 50.4 Mb/s
  12. Width                                    : 3 840 pixels
  13. Height                                   : 1 606 pixels
  14. Display aspect ratio                     : 2.40:1
  15. Frame rate mode                          : Constant
  16. Frame rate                               : 23.976 (24000/1001/189150) FPS
  17. Color space                              : YUV
  18. Chroma subsampling                       : 4:2:0
  19. Bit depth                                : 8 bits
  20. Scan type                                : Progressive
  21. Bits/(Pixel*Frame)                       : 0.341
  22. Stream size                              : 32.6 GiB (84%)
  23. Writing library                          : x264 core 157 r2935 545de2f
  24. Encoding settings                        : cabac=1 / ref=5 / deblock=1:-1:-1 / analyse=0x3:0x113 / me=umh / subme=10 / psy=1 / psy_rd=1.00:0.15 / mixed_ref=1 / me_range=48 / chroma_me=1 / trellis=2 / 8x8dct=1 / cqm=0 / deadzone=21,11 / fast_pskip=1 / chroma_qp_offset=-3 / threads=48 / lookahead_threads=4 / sliced_threads=0 / nr=0 / decimate=0 / interlaced=0 / bluray_compat=0 / constrained_intra=0 / bframes=3 / b_pyramid=2 / b_adapt=2 / b_bias=0 / direct=3 / weightb=1 / open_gop=0 / weightp=2 / keyint=250 / keyint_min=23 / scenecut=40 / intra_refresh=0 / rc_lookahead=50 / rc=crf / mbtree=1 / crf=18.0 / qcomp=0.60 / qpmin=0 / qpmax=69 / qpstep=4 / ip_ratio=1.40 / aq=1:1.00
  25. Default                                  : Yes
  26. Forced                                   : No

  27. Audio #1
  28. ID                                       : 2
  29. ID in the original source medium         : 4352 (0x1100)
  30. Format                                   : MLP FBA 16-ch
  31. Format/Info                              : Meridian Lossless Packing FBA with 16-channel presentation
  32. Commercial name                          : Dolby TrueHD with Dolby Atmos
  33. Codec ID                                 : A_TRUEHD
  34. Duration                                 : 1 h 32 min
  35. Bit rate mode                            : Variable
  36. Bit rate                                 : 4 640 kb/s
  37. Maximum bit rate                         : 7 854 kb/s
  38. Channel(s)                               : 8 channels
  39. Channel layout                           : L R C LFE Ls Rs Lb Rb
  40. Sampling rate                            : 48.0 kHz
  41. Frame rate                               : 1 200.000 FPS (40 SPF)
  42. Bit depth                                : 24 bits
  43. Compression mode                         : Lossless
  44. Stream size                              : 3.00 GiB (8%)
  45. Title                                    : TrueHD 7.1 Atmos
  46. Language                                 : English
  47. Default                                  : Yes
  48. Forced                                   : No
  49. Original source medium                   : Blu-ray
  50. Number of dynamic objects                : 11
  51. Bed channel count                        : 1 channel
  52. Bed channel configuration                : LFE

  53. Audio #2
  54. ID                                       : 3
  55. Format                                   : DTS XLL
  56. Format/Info                              : Digital Theater Systems
  57. Commercial name                          : DTS-HD Master Audio
  58. Codec ID                                 : A_DTS
  59. Duration                                 : 1 h 32 min
  60. Bit rate mode                            : Variable
  61. Bit rate                                 : 4 200 kb/s
  62. Channel(s)                               : 8 channels
  63. Channel layout                           : C L R LFE Lb Rb Lss Rss
  64. Sampling rate                            : 48.0 kHz
  65. Frame rate                               : 93.750 FPS (512 SPF)
  66. Bit depth                                : 24 bits
  67. Compression mode                         : Lossless
  68. Stream size                              : 2.71 GiB (7%)
  69. Title                                    : DTS-HD MA 7.1
  70. Language                                 : English
  71. Default                                  : No
  72. Forced                                   : No

  73. Audio #3
  74. ID                                       : 4
  75. ID in the original source medium         : 4352 (0x1100)
  76. Format                                   : AC-3
  77. Format/Info                              : Audio Coding 3
  78. Commercial name                          : Dolby Digital
  79. Codec ID                                 : A_AC3
  80. Duration                                 : 1 h 32 min
  81. Bit rate mode                            : Constant
  82. Bit rate                                 : 640 kb/s
  83. Channel(s)                               : 6 channels
  84. Channel layout                           : L R C LFE Ls Rs
  85. Sampling rate                            : 48.0 kHz
  86. Frame rate                               : 31.250 FPS (1536 SPF)
  87. Compression mode                         : Lossy
  88. Stream size                              : 423 MiB (1%)
  89. Title                                    : DD 5.1
  90. Language                                 : English
  91. Service kind                             : Complete Main
  92. Default                                  : No
  93. Forced                                   : No
  94. Original source medium                   : Blu-ray

  95. Text #1
  96. ID                                       : 5
  97. Format                                   : UTF-8
  98. Codec ID                                 : S_TEXT/UTF8
  99. Codec ID/Info                            : UTF-8 Plain Text
  100. Duration                                 : 1 h 30 min
  101. Bit rate                                 : 31 b/s
  102. Count of elements                        : 664
  103. Stream size                              : 20.9 KiB (0%)
  104. Title                                    : SRT
  105. Language                                 : English
  106. Default                                  : Yes
  107. Forced                                   : No

  108. Text #2
  109. ID                                       : 6
  110. ID in the original source medium         : 4768 (0x12A0)
  111. Format                                   : PGS
  112. Muxing mode                              : zlib
  113. Codec ID                                 : S_HDMV/PGS
  114. Codec ID/Info                            : Picture based subtitle format used on BDs/HD-DVDs
  115. Duration                                 : 1 h 31 min
  116. Bit rate                                 : 20.3 kb/s
  117. Count of elements                        : 1566
  118. Stream size                              : 13.3 MiB (0%)
  119. Title                                    : SDH
  120. Language                                 : English
  121. Default                                  : No
  122. Forced                                   : No
  123. Original source medium                   : Blu-ray

  124. Text #3
  125. ID                                       : 7
  126. ID in the original source medium         : 4769 (0x12A1)
  127. Format                                   : PGS
  128. Muxing mode                              : zlib
  129. Codec ID                                 : S_HDMV/PGS
  130. Codec ID/Info                            : Picture based subtitle format used on BDs/HD-DVDs
  131. Duration                                 : 1 h 22 min
  132. Bit rate                                 : 18.9 kb/s
  133. Count of elements                        : 1308
  134. Stream size                              : 11.1 MiB (0%)
  135. Language                                 : English
  136. Default                                  : No
  137. Forced                                   : No
  138. Original source medium                   : Blu-ray

  139. Text #4
  140. ID                                       : 8
  141. ID in the original source medium         : 4770 (0x12A2)
  142. Format                                   : PGS
  143. Muxing mode                              : zlib
  144. Codec ID                                 : S_HDMV/PGS
  145. Codec ID/Info                            : Picture based subtitle format used on BDs/HD-DVDs
  146. Duration                                 : 1 h 22 min
  147. Bit rate                                 : 9 619 b/s
  148. Count of elements                        : 1226
  149. Stream size                              : 5.66 MiB (0%)
  150. Language                                 : Arabic
  151. Default                                  : No
  152. Forced                                   : No
  153. Original source medium                   : Blu-ray

  154. Text #5
  155. ID                                       : 9
  156. ID in the original source medium         : 4771 (0x12A3)
  157. Format                                   : PGS
  158. Muxing mode                              : zlib
  159. Codec ID                                 : S_HDMV/PGS
  160. Codec ID/Info                            : Picture based subtitle format used on BDs/HD-DVDs
  161. Duration                                 : 1 h 22 min
  162. Bit rate                                 : 16.8 kb/s
  163. Count of elements                        : 1308
  164. Stream size                              : 9.88 MiB (0%)
  165. Language                                 : Chinese
  166. Default                                  : No
  167. Forced                                   : No
  168. Original source medium                   : Blu-ray

  169. Text #6
  170. ID                                       : 10
  171. ID in the original source medium         : 4772 (0x12A4)
  172. Format                                   : PGS
  173. Muxing mode                              : zlib
  174. Codec ID                                 : S_HDMV/PGS
  175. Codec ID/Info                            : Picture based subtitle format used on BDs/HD-DVDs
  176. Duration                                 : 1 h 22 min
  177. Bit rate                                 : 16.4 kb/s
  178. Count of elements                        : 1308
  179. Stream size                              : 9.64 MiB (0%)
  180. Language                                 : Chinese
  181. Default                                  : No
  182. Forced                                   : No
  183. Original source medium                   : Blu-ray

  184. Text #7
  185. ID                                       : 11
  186. ID in the original source medium         : 4773 (0x12A5)
  187. Format                                   : PGS
  188. Muxing mode                              : zlib
  189. Codec ID                                 : S_HDMV/PGS
  190. Codec ID/Info                            : Picture based subtitle format used on BDs/HD-DVDs
  191. Duration                                 : 1 h 31 min
  192. Bit rate                                 : 13.9 kb/s
  193. Count of elements                        : 1256
  194. Stream size                              : 9.09 MiB (0%)
  195. Language                                 : Czech
  196. Default                                  : No
  197. Forced                                   : No
  198. Original source medium                   : Blu-ray

  199. Text #8
  200. ID                                       : 12
  201. ID in the original source medium         : 4774 (0x12A6)
  202. Format                                   : PGS
  203. Muxing mode                              : zlib
  204. Codec ID                                 : S_HDMV/PGS
  205. Codec ID/Info                            : Picture based subtitle format used on BDs/HD-DVDs
  206. Duration                                 : 1 h 22 min
  207. Bit rate                                 : 16.6 kb/s
  208. Count of elements                        : 1120
  209. Stream size                              : 9.76 MiB (0%)
  210. Language                                 : Danish
  211. Default                                  : No
  212. Forced                                   : No
  213. Original source medium                   : Blu-ray

  214. Text #9
  215. ID                                       : 13
  216. ID in the original source medium         : 4775 (0x12A7)
  217. Format                                   : PGS
  218. Muxing mode                              : zlib
  219. Codec ID                                 : S_HDMV/PGS
  220. Codec ID/Info                            : Picture based subtitle format used on BDs/HD-DVDs
  221. Duration                                 : 1 h 22 min
  222. Bit rate                                 : 17.3 kb/s
  223. Count of elements                        : 1014
  224. Stream size                              : 10.2 MiB (0%)
  225. Language                                 : Dutch
  226. Default                                  : No
  227. Forced                                   : No
  228. Original source medium                   : Blu-ray

  229. Text #10
  230. ID                                       : 14
  231. ID in the original source medium         : 4776 (0x12A8)
  232. Format                                   : PGS
  233. Muxing mode                              : zlib
  234. Codec ID                                 : S_HDMV/PGS
  235. Codec ID/Info                            : Picture based subtitle format used on BDs/HD-DVDs
  236. Duration                                 : 1 h 31 min
  237. Bit rate                                 : 15.9 kb/s
  238. Count of elements                        : 1310
  239. Stream size                              : 10.4 MiB (0%)
  240. Language                                 : Finnish
  241. Default                                  : No
  242. Forced                                   : No
  243. Original source medium                   : Blu-ray

  244. Text #11
  245. ID                                       : 15
  246. ID in the original source medium         : 4777 (0x12A9)
  247. Format                                   : PGS
  248. Muxing mode                              : zlib
  249. Codec ID                                 : S_HDMV/PGS
  250. Codec ID/Info                            : Picture based subtitle format used on BDs/HD-DVDs
  251. Duration                                 : 1 h 31 min
  252. Bit rate                                 : 16.4 kb/s
  253. Count of elements                        : 1276
  254. Stream size                              : 10.8 MiB (0%)
  255. Language                                 : French
  256. Default                                  : No
  257. Forced                                   : No
  258. Original source medium                   : Blu-ray

  259. Text #12
  260. ID                                       : 16
  261. ID in the original source medium         : 4778 (0x12AA)
  262. Format                                   : PGS
  263. Muxing mode                              : zlib
  264. Codec ID                                 : S_HDMV/PGS
  265. Codec ID/Info                            : Picture based subtitle format used on BDs/HD-DVDs
  266. Duration                                 : 1 h 22 min
  267. Bit rate                                 : 18.3 kb/s
  268. Count of elements                        : 1292
  269. Stream size                              : 10.8 MiB (0%)
  270. Language                                 : German
  271. Default                                  : No
  272. Forced                                   : No
  273. Original source medium                   : Blu-ray

  274. Text #13
  275. ID                                       : 17
  276. ID in the original source medium         : 4779 (0x12AB)
  277. Format                                   : PGS
  278. Muxing mode                              : zlib
  279. Codec ID                                 : S_HDMV/PGS
  280. Codec ID/Info                            : Picture based subtitle format used on BDs/HD-DVDs
  281. Duration                                 : 1 h 22 min
  282. Bit rate                                 : 18.6 kb/s
  283. Count of elements                        : 1232
  284. Stream size                              : 11.0 MiB (0%)
  285. Language                                 : Greek
  286. Default                                  : No
  287. Forced                                   : No
  288. Original source medium                   : Blu-ray

  289. Text #14
  290. ID                                       : 18
  291. ID in the original source medium         : 4780 (0x12AC)
  292. Format                                   : PGS
  293. Muxing mode                              : zlib
  294. Codec ID                                 : S_HDMV/PGS
  295. Codec ID/Info                            : Picture based subtitle format used on BDs/HD-DVDs
  296. Duration                                 : 1 h 31 min
  297. Bit rate                                 : 13.6 kb/s
  298. Count of elements                        : 1310
  299. Stream size                              : 8.93 MiB (0%)
  300. Language                                 : Hindi
  301. Default                                  : No
  302. Forced                                   : No
  303. Original source medium                   : Blu-ray

  304. Text #15
  305. ID                                       : 19
  306. ID in the original source medium         : 4781 (0x12AD)
  307. Format                                   : PGS
  308. Muxing mode                              : zlib
  309. Codec ID                                 : S_HDMV/PGS
  310. Codec ID/Info                            : Picture based subtitle format used on BDs/HD-DVDs
  311. Duration                                 : 1 h 31 min
  312. Bit rate                                 : 13.9 kb/s
  313. Count of elements                        : 1196
  314. Stream size                              : 9.10 MiB (0%)
  315. Language                                 : Hungarian
  316. Default                                  : No
  317. Forced                                   : No
  318. Original source medium                   : Blu-ray

  319. Text #16
  320. ID                                       : 20
  321. ID in the original source medium         : 4782 (0x12AE)
  322. Format                                   : PGS
  323. Muxing mode                              : zlib
  324. Codec ID                                 : S_HDMV/PGS
  325. Codec ID/Info                            : Picture based subtitle format used on BDs/HD-DVDs
  326. Duration                                 : 1 h 31 min
  327. Bit rate                                 : 16.8 kb/s
  328. Count of elements                        : 1158
  329. Stream size                              : 11.0 MiB (0%)
  330. Language                                 : Icelandic
  331. Default                                  : No
  332. Forced                                   : No
  333. Original source medium                   : Blu-ray

  334. Text #17
  335. ID                                       : 21
  336. ID in the original source medium         : 4783 (0x12AF)
  337. Format                                   : PGS
  338. Muxing mode                              : zlib
  339. Codec ID                                 : S_HDMV/PGS
  340. Codec ID/Info                            : Picture based subtitle format used on BDs/HD-DVDs
  341. Duration                                 : 1 h 31 min
  342. Bit rate                                 : 17.9 kb/s
  343. Count of elements                        : 1314
  344. Stream size                              : 11.7 MiB (0%)
  345. Language                                 : Italian
  346. Default                                  : No
  347. Forced                                   : No
  348. Original source medium                   : Blu-ray

  349. Text #18
  350. ID                                       : 22
  351. ID in the original source medium         : 4784 (0x12B0)
  352. Format                                   : PGS
  353. Muxing mode                              : zlib
  354. Codec ID                                 : S_HDMV/PGS
  355. Codec ID/Info                            : Picture based subtitle format used on BDs/HD-DVDs
  356. Duration                                 : 1 h 31 min
  357. Bit rate                                 : 13.3 kb/s
  358. Count of elements                        : 1274
  359. Stream size                              : 8.68 MiB (0%)
  360. Language                                 : Japanese
  361. Default                                  : No
  362. Forced                                   : No
  363. Original source medium                   : Blu-ray

  364. Text #19
  365. ID                                       : 23
  366. ID in the original source medium         : 4785 (0x12B1)
  367. Format                                   : PGS
  368. Muxing mode                              : zlib
  369. Codec ID                                 : S_HDMV/PGS
  370. Codec ID/Info                            : Picture based subtitle format used on BDs/HD-DVDs
  371. Duration                                 : 1 h 23 min
  372. Bit rate                                 : 13.8 kb/s
  373. Count of elements                        : 1312
  374. Stream size                              : 8.28 MiB (0%)
  375. Language                                 : Korean
  376. Default                                  : No
  377. Forced                                   : No
  378. Original source medium                   : Blu-ray

  379. Text #20
  380. ID                                       : 24
  381. ID in the original source medium         : 4786 (0x12B2)
  382. Format                                   : PGS
  383. Muxing mode                              : zlib
  384. Codec ID                                 : S_HDMV/PGS
  385. Codec ID/Info                            : Picture based subtitle format used on BDs/HD-DVDs
  386. Duration                                 : 1 h 22 min
  387. Bit rate                                 : 18.9 kb/s
  388. Count of elements                        : 1308
  389. Stream size                              : 11.1 MiB (0%)
  390. Language                                 : Norwegian
  391. Default                                  : No
  392. Forced                                   : No
  393. Original source medium                   : Blu-ray

  394. Text #21
  395. ID                                       : 25
  396. ID in the original source medium         : 4787 (0x12B3)
  397. Format                                   : PGS
  398. Muxing mode                              : zlib
  399. Codec ID                                 : S_HDMV/PGS
  400. Codec ID/Info                            : Picture based subtitle format used on BDs/HD-DVDs
  401. Duration                                 : 1 h 22 min
  402. Bit rate                                 : 17.3 kb/s
  403. Count of elements                        : 1258
  404. Stream size                              : 10.2 MiB (0%)
  405. Language                                 : Polish
  406. Default                                  : No
  407. Forced                                   : No
  408. Original source medium                   : Blu-ray

  409. Text #22
  410. ID                                       : 26
  411. ID in the original source medium         : 4788 (0x12B4)
  412. Format                                   : PGS
  413. Muxing mode                              : zlib
  414. Codec ID                                 : S_HDMV/PGS
  415. Codec ID/Info                            : Picture based subtitle format used on BDs/HD-DVDs
  416. Duration                                 : 1 h 31 min
  417. Bit rate                                 : 17.4 kb/s
  418. Count of elements                        : 1304
  419. Stream size                              : 11.4 MiB (0%)
  420. Language                                 : Portuguese
  421. Default                                  : No
  422. Forced                                   : No
  423. Original source medium                   : Blu-ray

  424. Text #23
  425. ID                                       : 27
  426. ID in the original source medium         : 4789 (0x12B5)
  427. Format                                   : PGS
  428. Muxing mode                              : zlib
  429. Codec ID                                 : S_HDMV/PGS
  430. Codec ID/Info                            : Picture based subtitle format used on BDs/HD-DVDs
  431. Duration                                 : 1 h 31 min
  432. Bit rate                                 : 16.9 kb/s
  433. Count of elements                        : 1254
  434. Stream size                              : 11.1 MiB (0%)
  435. Language                                 : Romanian
  436. Default                                  : No
  437. Forced                                   : No
  438. Original source medium                   : Blu-ray

  439. Text #24
  440. ID                                       : 28
  441. ID in the original source medium         : 4790 (0x12B6)
  442. Format                                   : PGS
  443. Muxing mode                              : zlib
  444. Codec ID                                 : S_HDMV/PGS
  445. Codec ID/Info                            : Picture based subtitle format used on BDs/HD-DVDs
  446. Duration                                 : 1 h 31 min
  447. Bit rate                                 : 16.3 kb/s
  448. Count of elements                        : 1316
  449. Stream size                              : 10.7 MiB (0%)
  450. Language                                 : Slovak
  451. Default                                  : No
  452. Forced                                   : No
  453. Original source medium                   : Blu-ray

  454. Text #25
  455. ID                                       : 29
  456. ID in the original source medium         : 4791 (0x12B7)
  457. Format                                   : PGS
  458. Muxing mode                              : zlib
  459. Codec ID                                 : S_HDMV/PGS
  460. Codec ID/Info                            : Picture based subtitle format used on BDs/HD-DVDs
  461. Duration                                 : 1 h 22 min
  462. Bit rate                                 : 16.6 kb/s
  463. Count of elements                        : 1308
  464. Stream size                              : 9.78 MiB (0%)
  465. Language                                 : Slovenian
  466. Default                                  : No
  467. Forced                                   : No
  468. Original source medium                   : Blu-ray

  469. Text #26
  470. ID                                       : 30
  471. ID in the original source medium         : 4792 (0x12B8)
  472. Format                                   : PGS
  473. Muxing mode                              : zlib
  474. Codec ID                                 : S_HDMV/PGS
  475. Codec ID/Info                            : Picture based subtitle format used on BDs/HD-DVDs
  476. Duration                                 : 1 h 23 min
  477. Bit rate                                 : 18.8 kb/s
  478. Count of elements                        : 1248
  479. Stream size                              : 11.3 MiB (0%)
  480. Language                                 : Spanish
  481. Default                                  : No
  482. Forced                                   : No
  483. Original source medium                   : Blu-ray

  484. Text #27
  485. ID                                       : 31
  486. ID in the original source medium         : 4793 (0x12B9)
  487. Format                                   : PGS
  488. Muxing mode                              : zlib
  489. Codec ID                                 : S_HDMV/PGS
  490. Codec ID/Info                            : Picture based subtitle format used on BDs/HD-DVDs
  491. Duration                                 : 1 h 23 min
  492. Bit rate                                 : 17.2 kb/s
  493. Count of elements                        : 1282
  494. Stream size                              : 10.3 MiB (0%)
  495. Language                                 : Spanish
  496. Default                                  : No
  497. Forced                                   : No
  498. Original source medium                   : Blu-ray

  499. Text #28
  500. ID                                       : 32
  501. ID in the original source medium         : 4794 (0x12BA)
  502. Format                                   : PGS
  503. Muxing mode                              : zlib
  504. Codec ID                                 : S_HDMV/PGS
  505. Codec ID/Info                            : Picture based subtitle format used on BDs/HD-DVDs
  506. Duration                                 : 1 h 22 min
  507. Bit rate                                 : 18.7 kb/s
  508. Count of elements                        : 1284
  509. Stream size                              : 11.0 MiB (0%)
  510. Language                                 : Swedish
  511. Default                                  : No
  512. Forced                                   : No
  513. Original source medium                   : Blu-ray

  514. Text #29
  515. ID                                       : 33
  516. ID in the original source medium         : 4795 (0x12BB)
  517. Format                                   : PGS
  518. Muxing mode                              : zlib
  519. Codec ID                                 : S_HDMV/PGS
  520. Codec ID/Info                            : Picture based subtitle format used on BDs/HD-DVDs
  521. Duration                                 : 1 h 22 min
  522. Bit rate                                 : 18.6 kb/s
  523. Count of elements                        : 1296
  524. Stream size                              : 11.0 MiB (0%)
  525. Language                                 : Thai
  526. Default                                  : No
  527. Forced                                   : No
  528. Original source medium                   : Blu-ray

  529. Text #30
  530. ID                                       : 34
  531. ID in the original source medium         : 4796 (0x12BC)
  532. Format                                   : PGS
  533. Muxing mode                              : zlib
  534. Codec ID                                 : S_HDMV/PGS
  535. Codec ID/Info                            : Picture based subtitle format used on BDs/HD-DVDs
  536. Duration                                 : 1 h 22 min
  537. Bit rate                                 : 17.5 kb/s
  538. Count of elements                        : 1308
  539. Stream size                              : 10.3 MiB (0%)
  540. Language                                 : Turkish
  541. Default                                  : No
  542. Forced                                   : No
  543. Original source medium                   : Blu-ray

  544. Menu
  545. 00:00:00.000                             : en:Chapter 01
  546. 00:06:20.880                             : en:Chapter 02
  547. 00:11:43.411                             : en:Chapter 03
  548. 00:16:45.629                             : en:Chapter 04
  549. 00:24:34.055                             : en:Chapter 05
  550. 00:30:29.285                             : en:Chapter 06
  551. 00:36:34.066                             : en:Chapter 07
  552. 00:40:18.040                             : en:Chapter 08
  553. 00:46:29.870                             : en:Chapter 09
  554. 00:50:55.594                             : en:Chapter 10
  555. 00:55:09.222                             : en:Chapter 11
  556. 01:00:40.303                             : en:Chapter 12
  557. 01:07:14.280                             : en:Chapter 13
  558. 01:13:30.322                             : en:Chapter 14
  559. 01:16:39.553                             : en:Chapter 15
  560. 01:22:34.532                             : en:Chapter 16
复制代码










                                       
                                       

                                       
                                       
                                       





回复

使用道具 举报

蓝光币
31
发表于 2021-10-28 11:05:00 | 显示全部楼层
顶顶顶顶顶顶
回复 支持 反对

使用道具 举报

懒得打字嘛,点击右侧快捷回复 【右侧内容,后台自定义】
您需要登录后才可以回帖 登录 | 立即加入

本版积分规则

Archiver|小黑屋| 蓝光电影网 |网站地图

Copyright © 2021 Comsenz Inc. Powered by 蓝光电影网

蓝光电影网

本站内容由用户自主分享和转载自互联网,转载目的在于传递更多信息,并不代表本网赞同其观点和对其真实性负责。

如有侵权、违反国家法律政策行为,请联系我们,我们会第一时间及时清除和处理!

举报反馈邮箱:[email protected]

快速回复 返回顶部 返回列表