找回密码

蓝光电影网

查看: 326|回复: 1

[10bit.HDR] 黑夜传说2:进化/决战异世界2 Underworld.Evolution.2006.2160p.UHD.BluRay.x265.10bit.HDR.DTS-HD.MA.TrueHD.7.1.Atmos-SWTYBLZ 23.67GB

[复制链接]
蓝光币
730
发表于 2021-10-28 09:21:15 | 显示全部楼层 |阅读模式


◎译  名 黑夜传闻2:进化/决战异天下2(台)/妖夜寻狼之魔间叛徒(港)
◎片  名 Underworld: Evolution
◎年  代 2006
◎产  地 美国,加拿大
◎类  别 行动 / 惊悚 / 奇异
◎语  言 英语,法语,匈牙利语
◎上映日期 2006-01-20(美国)
◎豆瓣评分 7.4/10 from 67810 users
◎豆瓣链接 https://movie.douban.com/subject/1422920/
◎片  长 106 分钟
◎导  演 伦·怀斯曼 Len Wiseman
◎编  剧 Danny McBride Danny McBride / 伦·怀斯曼 Len Wiseman / 凯文·格雷维奥斯 Kevin Grevioux / 丹尼·麦克布莱德 Danny McBride
◎主  演 凯特·贝金赛尔 Kate Beckinsale
       斯科特·斯比德曼 Scott Speedman
       托尼·库兰 Tony Curran
       德里克·雅各比 Derek Jacobi
       比尔·奈伊 Bill Nighy
       斯蒂文·麦金托什 Steven Mackintosh
       山恩·布罗利 Shane Brolly
       布莱恩·斯蒂尔 Brian Steele
       兹塔·格罗格 Zita G?r?g
       约翰曼 John Mann
       麦克·辛 Michael Sheen
       索菲娅·迈尔斯 Sophia Myles
       理查德·赛特伦 Richard Cetrone
       Mike Mukatis Mike Mukatis
        Christine Danielle
       Kaja Gjesdal Kaja Gjesdal
       Alexander Grant Alexander Grant
        Monica Hamburg
       莉莉·莫·辛 Lily Mo Sheen
       安德烈·卡瓦德斯 Andrew Kavadas
       Kayla Levins Kayla Levins
       Raoul Ganeev Raoul Ganeev
       丹尼·帕皮诺 Dany Papineau
       肖恩·罗格森 Sean Rogerson
       阿德里安·霍夫 Adrian Hough
       Kurt Carley Kurt Carley
       麦克·冈瑟 Mike Gunther
◎标  签 吸血鬼 | 魔幻 | 美国 | 行动 | 狼人 | 科幻 | 奇异 | 美国电影
◎简  介


  狼人和吸血鬼之间的大战还在继续。当麦克尔(斯科特?斯比德曼 Scott Speedman 饰)和西丽妮(凯特?贝金赛尔 Kate Beckinsale 饰)还在诡计以自己亏弱的才能阻止这场大战时,诡计家们的佳构又诞生了――狼人和吸血鬼融合的具有超强才能的种族――“血族”。马克思(托尼?库兰 Tony Curran 饰)即是即是这个种族的第二代。他杀死了父亲,夺取了密钥和西丽妮的记忆,救出了一个是狼人、一个是吸血鬼的被软禁千年的孪生兄弟,诡计一统狼人、吸血鬼和人类三大种族。
  
  麦克尔和西丽妮这对情报酬了爱,他们必须挫败马克思的诡计、打败软禁千年的孪生兄弟……
◎获奖情况
  第15届MTV电影奖 ?(2006)
  MTV电影奖最好豪杰形象(提名) 凯特·贝金赛尔

  1. Video
  2. ID : 1
  3. Format : HEVC
  4. Format/Info : High Efficiency Video Coding
  5. Format profile : Main [email protected]@High
  6. HDR format : SMPTE ST 2086, HDR10 compatible
  7. Codec ID : V_MPEGH/ISO/HEVC
  8. Duration : 1 h 46 min
  9. Bit rate : 21.7 Mb/s
  10. Width : 3 840 pixels
  11. Height : 1 600 pixels
  12. Display aspect ratio : 2.40:1
  13. Frame rate mode : Constant
  14. Frame rate : 23.976 (24000/1001) FPS
  15. Color space : YUV
  16. Chroma subsampling : 4:2:0 (Type 2)
  17. Bit depth : 10 bits
  18. Bits/(Pixel*Frame) : 0.147
  19. Stream size : 16.1 GiB (68%)
  20. Writing library : x265 3.0_Au+10-74a8672ea4f7:[Windows][GCC 8.2.1][64 bit] 10bit
  21. Encoding settings : cpuid=1111039 / frame-threads=6 / numa-pools=40 / wpp / no-pmode / no-pme / no-psnr / no-ssim / log-level=2 / input-csp=1 / input-res=3840x1600 / interlace=0 / total-frames=0 / level-idc=51 / high-tier=1 / uhd-bd=0 / ref=3 / no-allow-non-conformance / repeat-headers / annexb / aud / hrd / info / hash=0 / no-temporal-layers / no-open-gop / min-keyint=1 / keyint=24 / gop-lookahead=0 / bframes=4 / b-adapt=2 / b-pyramid / bframe-bias=0 / rc-lookahead=25 / lookahead-slices=4 / scenecut=40 / radl=0 / no-splice / no-intra-refresh / ctu=64 / min-cu-size=8 / no-rect / no-amp / max-tu-size=32 / tu-inter-depth=1 / tu-intra-depth=1 / limit-tu=0 / rdoq-level=0 / dynamic-rd=0.00 / no-ssim-rd / signhide / no-tskip / nr-intra=0 / nr-inter=0 / no-constrained-intra / strong-intra-smoothing / max-merge=2 / limit-refs=3 / no-limit-modes / me=1 / subme=2 / merange=57 / temporal-mvp / weightp / no-weightb / no-analyze-src-pics / deblock=0:0 / no-sao / no-sao-non-deblock / rd=3 / no-early-skip / rskip / no-fast-intra / no-tskip-fast / no-cu-lossless / no-b-intra / no-splitrd-skip / rdpenalty=0 / psy-rd=2.00 / psy-rdoq=0.00 / no-rd-refine / no-lossless / cbqpoffs=0 / crqpoffs=0 / rc=crf / crf=16.0 / qcomp=0.60 / qpstep=4 / stats-write=0 / stats-read=0 / vbv-maxrate=160000 / vbv-bufsize=160000 / vbv-init=0.9 / crf-max=0.0 / crf-min=0.0 / ipratio=1.40 / pbratio=1.30 / aq-mode=1 / aq-strength=1.00 / cutree / zone-count=0 / no-strict-cbr / qg-size=32 / no-rc-grain / qpmax=69 / qpmin=0 / no-const-vbv / sar=1 / overscan=0 / videoformat=5 / range=0 / colorprim=9 / transfer=16 / colormatrix=9 / chromaloc=1 / chromaloc-top=2 / chromaloc-bottom=2 / display-window=0 / master-display=G(13250,34500)B(7500,3000)R(34000,16000)WP(15635,16450)L(40000000,50) / max-cll=810,498 / min-luma=0 / max-luma=1023 / log2-max-poc-lsb=8 / vui-timing-info / vui-hrd-info / slices=1 / opt-qp-pps / opt-ref-list-length-pps / no-multi-pass-opt-rps / scenecut-bias=0.05 / no-opt-cu-delta-qp / no-aq-motion / hdr / hdr-opt / no-dhdr10-opt / no-idr-recovery-sei / analysis-reuse-level=5 / scale-factor=0 / refine-intra=0 / refine-inter=0 / refine-mv=0 / refine-ctu-distortion=0 / no-limit-sao / ctu-info=0 / no-lowpass-dct / refine-analysis-type=16 / copy-pic=1 / max-ausize-factor=1.0 / no-dynamic-refine / no-single-sei / no-hevc-aq / no-svt / qp-adaptation-range=1.00
  22. Default : Yes
  23. Forced : No
  24. Color range : Limited
  25. Color primaries : BT.2020
  26. Transfer characteristics : PQ
  27. Matrix coefficients : BT.2020 non-constant
  28. Mastering display color primaries : Display P3
  29. Mastering display luminance : min: 0.0050 cd/m2, max: 4000 cd/m2
  30. Maximum Content Light Level : 810 cd/m2
  31. Maximum Frame-Average Light Level : 498 cd/m2

  32. Audio #1
  33. ID : 2
  34. ID in the original source medium : 4352 (0x1100)
  35. Format : MLP FBA 16-ch
  36. Format/Info : Meridian Lossless Packing FBA with 16-channel presentation
  37. Commercial name : Dolby TrueHD with Dolby Atmos
  38. Codec ID : A_TRUEHD
  39. Duration : 1 h 46 min
  40. Bit rate mode : Variable
  41. Bit rate : 4 821 kb/s
  42. Maximum bit rate : 7 806 kb/s
  43. Channel(s) : 8 channels
  44. Channel layout : L R C LFE Ls Rs Lb Rb
  45. Sampling rate : 48.0 kHz
  46. Frame rate : 1 200.000 FPS (40 SPF)
  47. Bit depth : 24 bits
  48. Compression mode : Lossless
  49. Stream size : 3.58 GiB (15%)
  50. Title : TrueHD 7.1 Atmos
  51. Language : English
  52. Default : Yes
  53. Forced : No
  54. Original source medium : Blu-ray
  55. Number of dynamic objects : 11
  56. Bed channel count : 1 channel
  57. Bed channel configuration : LFE

  58. Audio #2
  59. ID : 3
  60. Format : DTS XLL
  61. Format/Info : Digital Theater Systems
  62. Commercial name : DTS-HD Master Audio
  63. Codec ID : A_DTS
  64. Duration : 1 h 46 min
  65. Bit rate mode : Variable
  66. Bit rate : 4 388 kb/s
  67. Channel(s) : 8 channels
  68. Channel layout : C L R LFE Lb Rb Lss Rss
  69. Sampling rate : 48.0 kHz
  70. Frame rate : 93.750 FPS (512 SPF)
  71. Bit depth : 24 bits
  72. Compression mode : Lossless
  73. Stream size : 3.26 GiB (14%)
  74. Title : DTS-HD MA 7.1
  75. Language : English
  76. Default : No
  77. Forced : No

  78. Audio #3
  79. ID : 4
  80. ID in the original source medium : 4352 (0x1100)
  81. Format : AC-3
  82. Format/Info : Audio Coding 3
  83. Commercial name : Dolby Digital
  84. Codec ID : A_AC3
  85. Duration : 1 h 46 min
  86. Bit rate mode : Constant
  87. Bit rate : 640 kb/s
  88. Channel(s) : 6 channels
  89. Channel layout : L R C LFE Ls Rs
  90. Sampling rate : 48.0 kHz
  91. Frame rate : 31.250 FPS (1536 SPF)
  92. Compression mode : Lossy
  93. Stream size : 487 MiB (2%)
  94. Title : DD 5.1
  95. Language : English
  96. Service kind : Complete Main
  97. Default : No
  98. Forced : No
  99. Original source medium : Blu-ray

  100. Text #1
  101. ID : 5
  102. Format : UTF-8
  103. Codec ID : S_TEXT/UTF8
  104. Codec ID/Info : UTF-8 Plain Text
  105. Duration : 1 h 36 min
  106. Bit rate : 21 b/s
  107. Count of elements : 511
  108. Stream size : 15.2 KiB (0%)
  109. Title : SRT
  110. Language : English
  111. Default : Yes
  112. Forced : No

  113. Text #2
  114. ID : 6
  115. ID in the original source medium : 4768 (0x12A0)
  116. Format : PGS
  117. Muxing mode : zlib
  118. Codec ID : S_HDMV/PGS
  119. Codec ID/Info : Picture based subtitle format used on BDs/HD-DVDs
  120. Duration : 1 h 45 min
  121. Bit rate : 17.1 kb/s
  122. Count of elements : 1647
  123. Stream size : 12.9 MiB (0%)
  124. Title : SDH
  125. Language : English
  126. Default : No
  127. Forced : No
  128. Original source medium : Blu-ray

  129. Text #3
  130. ID : 7
  131. ID in the original source medium : 4769 (0x12A1)
  132. Format : PGS
  133. Muxing mode : zlib
  134. Codec ID : S_HDMV/PGS
  135. Codec ID/Info : Picture based subtitle format used on BDs/HD-DVDs
  136. Duration : 1 h 36 min
  137. Bit rate : 12.9 kb/s
  138. Count of elements : 1082
  139. Stream size : 8.96 MiB (0%)
  140. Language : English
  141. Default : No
  142. Forced : No
  143. Original source medium : Blu-ray

  144. Text #4
  145. ID : 8
  146. ID in the original source medium : 4770 (0x12A2)
  147. Format : PGS
  148. Muxing mode : zlib
  149. Codec ID : S_HDMV/PGS
  150. Codec ID/Info : Picture based subtitle format used on BDs/HD-DVDs
  151. Duration : 1 h 45 min
  152. Bit rate : 17.1 kb/s
  153. Count of elements : 1647
  154. Stream size : 12.9 MiB (0%)
  155. Title : SDH
  156. Language : English
  157. Default : No
  158. Forced : No
  159. Original source medium : Blu-ray

  160. Text #5
  161. ID : 9
  162. ID in the original source medium : 4771 (0x12A3)
  163. Format : PGS
  164. Muxing mode : zlib
  165. Codec ID : S_HDMV/PGS
  166. Codec ID/Info : Picture based subtitle format used on BDs/HD-DVDs
  167. Duration : 1 h 36 min
  168. Bit rate : 12.9 kb/s
  169. Count of elements : 1080
  170. Stream size : 8.96 MiB (0%)
  171. Language : English
  172. Default : No
  173. Forced : No
  174. Original source medium : Blu-ray

  175. Text #6
  176. ID : 10
  177. ID in the original source medium : 4772 (0x12A4)
  178. Format : PGS
  179. Muxing mode : zlib
  180. Codec ID : S_HDMV/PGS
  181. Codec ID/Info : Picture based subtitle format used on BDs/HD-DVDs
  182. Duration : 1 h 45 min
  183. Bit rate : 11.9 kb/s
  184. Count of elements : 1122
  185. Stream size : 9.03 MiB (0%)
  186. Language : Chinese
  187. Default : No
  188. Forced : No
  189. Original source medium : Blu-ray

  190. Text #7
  191. ID : 11
  192. ID in the original source medium : 4773 (0x12A5)
  193. Format : PGS
  194. Muxing mode : zlib
  195. Codec ID : S_HDMV/PGS
  196. Codec ID/Info : Picture based subtitle format used on BDs/HD-DVDs
  197. Duration : 1 h 37 min
  198. Bit rate : 9 520 b/s
  199. Count of elements : 1102
  200. Stream size : 6.66 MiB (0%)
  201. Language : Chinese
  202. Default : No
  203. Forced : No
  204. Original source medium : Blu-ray

  205. Text #8
  206. ID : 12
  207. ID in the original source medium : 4774 (0x12A6)
  208. Format : PGS
  209. Muxing mode : zlib
  210. Codec ID : S_HDMV/PGS
  211. Codec ID/Info : Picture based subtitle format used on BDs/HD-DVDs
  212. Duration : 1 h 45 min
  213. Bit rate : 12.5 kb/s
  214. Count of elements : 926
  215. Stream size : 9.45 MiB (0%)
  216. Language : Danish
  217. Default : No
  218. Forced : No
  219. Original source medium : Blu-ray

  220. Text #9
  221. ID : 13
  222. ID in the original source medium : 4775 (0x12A7)
  223. Format : PGS
  224. Muxing mode : zlib
  225. Codec ID : S_HDMV/PGS
  226. Codec ID/Info : Picture based subtitle format used on BDs/HD-DVDs
  227. Duration : 1 h 37 min
  228. Bit rate : 12.9 kb/s
  229. Count of elements : 1052
  230. Stream size : 9.06 MiB (0%)
  231. Language : Dutch
  232. Default : No
  233. Forced : No
  234. Original source medium : Blu-ray

  235. Text #10
  236. ID : 14
  237. ID in the original source medium : 4776 (0x12A8)
  238. Format : PGS
  239. Muxing mode : zlib
  240. Codec ID : S_HDMV/PGS
  241. Codec ID/Info : Picture based subtitle format used on BDs/HD-DVDs
  242. Duration : 1 h 45 min
  243. Bit rate : 12.0 kb/s
  244. Count of elements : 908
  245. Stream size : 9.08 MiB (0%)
  246. Language : Finnish
  247. Default : No
  248. Forced : No
  249. Original source medium : Blu-ray

  250. Text #11
  251. ID : 15
  252. ID in the original source medium : 4777 (0x12A9)
  253. Format : PGS
  254. Muxing mode : zlib
  255. Codec ID : S_HDMV/PGS
  256. Codec ID/Info : Picture based subtitle format used on BDs/HD-DVDs
  257. Duration : 1 h 45 min
  258. Bit rate : 12.0 kb/s
  259. Count of elements : 1118
  260. Stream size : 9.07 MiB (0%)
  261. Language : French
  262. Default : No
  263. Forced : No
  264. Original source medium : Blu-ray

  265. Text #12
  266. ID : 16
  267. ID in the original source medium : 4777 (0x12A9)
  268. Format : PGS
  269. Muxing mode : zlib
  270. Codec ID : S_HDMV/PGS
  271. Codec ID/Info : Picture based subtitle format used on BDs/HD-DVDs
  272. Duration : 1 h 45 min
  273. Bit rate : 493 b/s
  274. Count of elements : 34
  275. Stream size : 383 KiB (0%)
  276. Language : French
  277. Default : No
  278. Forced : No
  279. Original source medium : Blu-ray

  280. Text #13
  281. ID : 17
  282. ID in the original source medium : 4778 (0x12AA)
  283. Format : PGS
  284. Muxing mode : zlib
  285. Codec ID : S_HDMV/PGS
  286. Codec ID/Info : Picture based subtitle format used on BDs/HD-DVDs
  287. Duration : 1 h 37 min
  288. Bit rate : 13.7 kb/s
  289. Count of elements : 1078
  290. Stream size : 9.59 MiB (0%)
  291. Language : German
  292. Default : No
  293. Forced : No
  294. Original source medium : Blu-ray

  295. Text #14
  296. ID : 18
  297. ID in the original source medium : 4778 (0x12AA)
  298. Format : PGS
  299. Muxing mode : zlib
  300. Codec ID : S_HDMV/PGS
  301. Codec ID/Info : Picture based subtitle format used on BDs/HD-DVDs
  302. Duration : 1 h 0 min
  303. Bit rate : 1 176 b/s
  304. Count of elements : 42
  305. Stream size : 518 KiB (0%)
  306. Language : German
  307. Default : No
  308. Forced : No
  309. Original source medium : Blu-ray

  310. Text #15
  311. ID : 19
  312. ID in the original source medium : 4779 (0x12AB)
  313. Format : PGS
  314. Muxing mode : zlib
  315. Codec ID : S_HDMV/PGS
  316. Codec ID/Info : Picture based subtitle format used on BDs/HD-DVDs
  317. Duration : 1 h 37 min
  318. Bit rate : 10.1 kb/s
  319. Count of elements : 1128
  320. Stream size : 7.07 MiB (0%)
  321. Language : Hebrew
  322. Default : No
  323. Forced : No
  324. Original source medium : Blu-ray

  325. Text #16
  326. ID : 20
  327. ID in the original source medium : 4780 (0x12AC)
  328. Format : PGS
  329. Muxing mode : zlib
  330. Codec ID : S_HDMV/PGS
  331. Codec ID/Info : Picture based subtitle format used on BDs/HD-DVDs
  332. Duration : 1 h 45 min
  333. Bit rate : 10.4 kb/s
  334. Count of elements : 1116
  335. Stream size : 7.86 MiB (0%)
  336. Language : Hindi
  337. Default : No
  338. Forced : No
  339. Original source medium : Blu-ray

  340. Text #17
  341. ID : 21
  342. ID in the original source medium : 4781 (0x12AD)
  343. Format : PGS
  344. Muxing mode : zlib
  345. Codec ID : S_HDMV/PGS
  346. Codec ID/Info : Picture based subtitle format used on BDs/HD-DVDs
  347. Duration : 1 h 45 min
  348. Bit rate : 13.1 kb/s
  349. Count of elements : 1130
  350. Stream size : 9.88 MiB (0%)
  351. Language : Italian
  352. Default : No
  353. Forced : No
  354. Original source medium : Blu-ray

  355. Text #18
  356. ID : 22
  357. ID in the original source medium : 4781 (0x12AD)
  358. Format : PGS
  359. Muxing mode : zlib
  360. Codec ID : S_HDMV/PGS
  361. Codec ID/Info : Picture based subtitle format used on BDs/HD-DVDs
  362. Duration : 1 h 45 min
  363. Bit rate : 526 b/s
  364. Count of elements : 44
  365. Stream size : 407 KiB (0%)
  366. Language : Italian
  367. Default : No
  368. Forced : No
  369. Original source medium : Blu-ray

  370. Text #19
  371. ID : 23
  372. ID in the original source medium : 4782 (0x12AE)
  373. Format : PGS
  374. Muxing mode : zlib
  375. Codec ID : S_HDMV/PGS
  376. Codec ID/Info : Picture based subtitle format used on BDs/HD-DVDs
  377. Duration : 1 h 45 min
  378. Bit rate : 9 820 b/s
  379. Count of elements : 996
  380. Stream size : 7.43 MiB (0%)
  381. Language : Japanese
  382. Default : No
  383. Forced : No
  384. Original source medium : Blu-ray

  385. Text #20
  386. ID : 24
  387. ID in the original source medium : 4783 (0x12AF)
  388. Format : PGS
  389. Muxing mode : zlib
  390. Codec ID : S_HDMV/PGS
  391. Codec ID/Info : Picture based subtitle format used on BDs/HD-DVDs
  392. Duration : 1 h 37 min
  393. Bit rate : 12.7 kb/s
  394. Count of elements : 1050
  395. Stream size : 8.86 MiB (0%)
  396. Language : Norwegian
  397. Default : No
  398. Forced : No
  399. Original source medium : Blu-ray

  400. Text #21
  401. ID : 25
  402. ID in the original source medium : 4784 (0x12B0)
  403. Format : PGS
  404. Muxing mode : zlib
  405. Codec ID : S_HDMV/PGS
  406. Codec ID/Info : Picture based subtitle format used on BDs/HD-DVDs
  407. Duration : 1 h 39 min
  408. Bit rate : 13.0 kb/s
  409. Count of elements : 1118
  410. Stream size : 9.22 MiB (0%)
  411. Language : Spanish
  412. Default : No
  413. Forced : No
  414. Original source medium : Blu-ray

  415. Text #22
  416. ID : 26
  417. ID in the original source medium : 4784 (0x12B0)
  418. Format : PGS
  419. Muxing mode : zlib
  420. Codec ID : S_HDMV/PGS
  421. Codec ID/Info : Picture based subtitle format used on BDs/HD-DVDs
  422. Duration : 59 min 30 s
  423. Bit rate : 303 b/s
  424. Count of elements : 14
  425. Stream size : 132 KiB (0%)
  426. Language : Spanish
  427. Default : No
  428. Forced : No
  429. Original source medium : Blu-ray

  430. Text #23
  431. ID : 27
  432. ID in the original source medium : 4785 (0x12B1)
  433. Format : PGS
  434. Muxing mode : zlib
  435. Codec ID : S_HDMV/PGS
  436. Codec ID/Info : Picture based subtitle format used on BDs/HD-DVDs
  437. Duration : 1 h 45 min
  438. Bit rate : 10.8 kb/s
  439. Count of elements : 850
  440. Stream size : 8.16 MiB (0%)
  441. Language : Swedish
  442. Default : No
  443. Forced : No
  444. Original source medium : Blu-ray

  445. Text #24
  446. ID : 28
  447. ID in the original source medium : 4786 (0x12B2)
  448. Format : PGS
  449. Muxing mode : zlib
  450. Codec ID : S_HDMV/PGS
  451. Codec ID/Info : Picture based subtitle format used on BDs/HD-DVDs
  452. Duration : 1 h 37 min
  453. Bit rate : 13.8 kb/s
  454. Count of elements : 1122
  455. Stream size : 9.68 MiB (0%)
  456. Language : Turkish
  457. Default : No
  458. Forced : No
  459. Original source medium : Blu-ray

  460. Menu
  461. 00:00:00.000 : en:Chapter 01
  462. 00:09:46.085 : en:Chapter 02
  463. 00:12:20.823 : en:Chapter 03
  464. 00:17:17.828 : en:Chapter 04
  465. 00:23:11.723 : en:Chapter 05
  466. 00:33:47.650 : en:Chapter 06
  467. 00:38:58.252 : en:Chapter 07
  468. 00:43:31.692 : en:Chapter 08
  469. 00:49:11.573 : en:Chapter 09
  470. 00:56:43.858 : en:Chapter 10
  471. 01:03:08.826 : en:Chapter 11
  472. 01:10:37.316 : en:Chapter 12
  473. 01:17:16.673 : en:Chapter 13
  474. 01:21:32.262 : en:Chapter 14
  475. 01:28:48.573 : en:Chapter 15
  476. 01:32:17.990 : en:Chapter 16
复制代码








                                       

                                       
                                       
                                       





回复

使用道具 举报

蓝光币
3152
发表于 2021-10-28 12:50:11 | 显示全部楼层
楼主发贴辛苦了,谢谢楼主分享!我觉得蓝光电影网是注册对了!
回复 支持 反对

使用道具 举报

懒得打字嘛,点击右侧快捷回复 【右侧内容,后台自定义】
您需要登录后才可以回帖 登录 | 立即加入

本版积分规则

Archiver|小黑屋| 蓝光电影网 |网站地图

Copyright © 2021 Comsenz Inc. Powered by 蓝光电影网

蓝光电影网

本站内容由用户自主分享和转载自互联网,转载目的在于传递更多信息,并不代表本网赞同其观点和对其真实性负责。

如有侵权、违反国家法律政策行为,请联系我们,我们会第一时间及时清除和处理!

举报反馈邮箱:[email protected]

快速回复 返回顶部 返回列表