找回密码

蓝光电影网

查看: 409|回复: 3

[10bit.SDR] 静水城/斯蒂尔沃特 Stillwater.2021.2160p.WEB-DL.x265.10bit.SDR.DTS-HD.MA.5.1-NOGRP 15.41GB

[复制链接]
蓝光币
682
发表于 2021-10-28 09:13:49 | 显示全部楼层 |阅读模式


◎译  名 静水城/斯蒂尔沃特/止水/静水
◎片  名 Stillwater
◎年  代 2021
◎产  地 美国
◎类  别 剧情 / 惊悚 / 犯罪
◎语  言 英语
◎上映日期 2021-07-08(戛纳电影节) / 2021-07-30(美国)
◎豆瓣评分 7.1/10 from 8061 users
◎豆瓣链接 https://movie.douban.com/subject/34614665/
◎片  长 139分钟
◎导  演 汤姆·麦卡锡 Tom McCarthy
◎编  剧 汤姆·麦卡锡 Tom McCarthy / 马库斯·辛奇 Marcus Hinchey / 托马斯·彼得葛恩 Thomas Bidegain / 诺亚·德勃雷 Noé Debré
◎主  演 马特·达蒙 Matt Damon
       卡米尔·科坦 Camille Cottin
       阿比盖尔·布雷斯林 Abigail Breslin
       利鲁·肖沃 Lilou Siauvaud
       狄安娜·杜纳甘 Deanna Dunagan
       伊迪尔·阿祖格利 Idir Azougli
       安娜·勒尼 Anne Le Ny
       茂萨·马斯克里 Moussa Maaskri
       伊莎贝尔·塔纳克 Isabelle Tanakil
       奈德拉·阿亚迪 Naidra Ayadi
       吉尔伯特·特拉尼亚 Gilbert Traina
       威廉·纳迪兰 William Nadylam
       沙扎德·拉蒂夫 Shazad Latif
       米歇尔?邦波 Michel Bompoil
       莎拉·布鲁克斯 Sarah Brooks
       埃里克·斯达克 Eric Starkey
       罗伯特·皮特斯 Robert Peters
       Olivier Cruveiller Olivier Cruveiller
◎标  签 剧情 | 美国 | 犯罪 | 2021 | 悬疑 | 欧美 | 电影 | 惊悚
◎简  介


  影片围绕一个来自俄克拉荷马州的美国石油钻井平台钻工比尔(达蒙饰)展开。他不能不前往马赛,造访他久未碰面却锒铛入狱的女儿(布雷斯林饰),他的女儿坚称并没有犯下谋杀罪。面临说话的障碍、文化的差别,以及复杂的法令制度,比尔决意孤注一掷拯救他的女儿。而在这个进程中,他与一位当地的女性和她的小女儿建立了友谊,也起头了小我的摸索之旅,并获得了更大的归属感。
  1. Video
  2. ID                                       : 1
  3. Format                                   : HEVC
  4. Format/Info                              : High Efficiency Video Coding
  5. Format profile                           : Main [email protected]@High
  6. Codec ID                                 : V_MPEGH/ISO/HEVC
  7. Duration                                 : 2 h 19 min
  8. Bit rate                                 : 12.0 Mb/s
  9. Width                                    : 3 836 pixels
  10. Height                                   : 2 072 pixels
  11. Display aspect ratio                     : 1.85:1
  12. Frame rate mode                          : Constant
  13. Frame rate                               : 23.976 FPS
  14. Color space                              : YUV
  15. Chroma subsampling                       : 4:2:0
  16. Bit depth                                : 10 bits
  17. Bits/(Pixel*Frame)                       : 0.063
  18. Stream size                              : 11.7 GiB (76%)
  19. Default                                  : Yes
  20. Forced                                   : No
  21. Color range                              : Limited
  22. Color primaries                          : BT.709
  23. Transfer characteristics                 : BT.709
  24. Matrix coefficients                      : BT.709

  25. Audio #1
  26. ID                                       : 2
  27. ID in the original source medium         : 4352 (0x1100)
  28. Format                                   : DTS XLL
  29. Format/Info                              : Digital Theater Systems
  30. Commercial name                          : DTS-HD Master Audio
  31. Codec ID                                 : A_DTS
  32. Duration                                 : 2 h 18 min
  33. Bit rate mode                            : Variable
  34. Bit rate                                 : 3 412 kb/s
  35. Channel(s)                               : 6 channels
  36. Channel layout                           : C L R Ls Rs LFE
  37. Sampling rate                            : 48.0 kHz
  38. Frame rate                               : 93.750 FPS (512 SPF)
  39. Bit depth                                : 24 bits
  40. Compression mode                         : Lossless
  41. Delay relative to video                  : 24 s 400 ms
  42. Stream size                              : 3.31 GiB (21%)
  43. Title                                    : DTS-HD MA 5.1
  44. Language                                 : English
  45. Default                                  : Yes
  46. Forced                                   : No
  47. Original source medium                   : Blu-ray

  48. Audio #2
  49. ID                                       : 3
  50. Format                                   : AC-3
  51. Format/Info                              : Audio Coding 3
  52. Commercial name                          : Dolby Digital
  53. Codec ID                                 : A_AC3
  54. Duration                                 : 2 h 19 min
  55. Bit rate mode                            : Constant
  56. Bit rate                                 : 384 kb/s
  57. Channel(s)                               : 6 channels
  58. Channel layout                           : L R C LFE Ls Rs
  59. Sampling rate                            : 48.0 kHz
  60. Frame rate                               : 31.250 FPS (1536 SPF)
  61. Compression mode                         : Lossy
  62. Stream size                              : 383 MiB (2%)
  63. Language                                 : English
  64. Service kind                             : Complete Main
  65. Default                                  : Yes
  66. Forced                                   : No

  67. Text #1
  68. ID                                       : 4
  69. Format                                   : UTF-8
  70. Codec ID                                 : S_TEXT/UTF8
  71. Codec ID/Info                            : UTF-8 Plain Text
  72. Duration                                 : 2 h 9 min
  73. Bit rate                                 : 41 b/s
  74. Count of elements                        : 1245
  75. Stream size                              : 39.3 KiB (0%)
  76. Title                                    : SRT
  77. Language                                 : English
  78. Default                                  : Yes
  79. Forced                                   : No

  80. Text #2
  81. ID                                       : 5
  82. Format                                   : UTF-8
  83. Codec ID                                 : S_TEXT/UTF8
  84. Codec ID/Info                            : UTF-8 Plain Text
  85. Duration                                 : 2 h 1 min
  86. Bit rate                                 : 10 b/s
  87. Count of elements                        : 273
  88. Stream size                              : 9.15 KiB (0%)
  89. Title                                    : Forced
  90. Language                                 : English
  91. Default                                  : No
  92. Forced                                   : Yes

  93. Text #3
  94. ID                                       : 6
  95. Format                                   : UTF-8
  96. Codec ID                                 : S_TEXT/UTF8
  97. Codec ID/Info                            : UTF-8 Plain Text
  98. Duration                                 : 2 h 9 min
  99. Bit rate                                 : 52 b/s
  100. Count of elements                        : 1818
  101. Stream size                              : 50.3 KiB (0%)
  102. Title                                    : Latin American
  103. Language                                 : Spanish
  104. Default                                  : No
  105. Forced                                   : No

  106. Text #4
  107. ID                                       : 7
  108. Format                                   : UTF-8
  109. Codec ID                                 : S_TEXT/UTF8
  110. Codec ID/Info                            : UTF-8 Plain Text
  111. Duration                                 : 2 h 16 min
  112. Bit rate                                 : 45 b/s
  113. Count of elements                        : 1400
  114. Stream size                              : 45.3 KiB (0%)
  115. Language                                 : Hungarian
  116. Default                                  : No
  117. Forced                                   : No

  118. Text #5
  119. ID                                       : 8
  120. Format                                   : UTF-8
  121. Codec ID                                 : S_TEXT/UTF8
  122. Codec ID/Info                            : UTF-8 Plain Text
  123. Duration                                 : 2 h 17 min
  124. Bit rate                                 : 48 b/s
  125. Count of elements                        : 1661
  126. Stream size                              : 48.6 KiB (0%)
  127. Title                                    : Brazilian
  128. Language                                 : Portuguese
  129. Default                                  : No
  130. Forced                                   : No

  131. Text #6
  132. ID                                       : 9
  133. Format                                   : UTF-8
  134. Codec ID                                 : S_TEXT/UTF8
  135. Codec ID/Info                            : UTF-8 Plain Text
  136. Duration                                 : 2 h 10 min
  137. Bit rate                                 : 118 b/s
  138. Count of elements                        : 1410
  139. Stream size                              : 113 KiB (0%)
  140. Language                                 : Thai
  141. Default                                  : No
  142. Forced                                   : No

  143. Menu
  144. 00:00:00.000                             : en:Chapter 01
  145. 00:08:14.786                             : en:Chapter 02
  146. 00:13:21.301                             : en:Chapter 03
  147. 00:22:41.361                             : en:Chapter 04
  148. 00:32:48.218                             : en:Chapter 05
  149. 00:38:09.914                             : en:Chapter 06
  150. 00:44:26.750                             : en:Chapter 07
  151. 00:49:29.886                             : en:Chapter 08
  152. 00:58:15.412                             : en:Chapter 09
  153. 01:03:43.573                             : en:Chapter 10
  154. 01:08:46.084                             : en:Chapter 11
  155. 01:16:30.298                             : en:Chapter 12
  156. 01:25:28.336                             : en:Chapter 13
  157. 01:32:40.643                             : en:Chapter 14
  158. 01:39:43.274                             : en:Chapter 15
  159. 01:45:51.559                             : en:Chapter 16
  160. 01:52:08.061                             : en:Chapter 17
  161. 02:01:21.489                             : en:Chapter 18
  162. 02:05:55.764                             : en:Chapter 19
  163. 02:12:32.869                             : en:Chapter 20
复制代码




                                       
                                       

                                       
                                       
                                       




回复

使用道具 举报

蓝光币
80
发表于 2021-10-28 10:58:15 | 显示全部楼层

楼主太厉害了!楼主,电影应该很好看我觉得蓝光电影网真是个好地方!
回复 支持 反对

使用道具 举报

蓝光币
120
发表于 2021-10-28 19:40:49 | 显示全部楼层
感谢分享。
回复

使用道具 举报

蓝光币
63
发表于 2021-10-29 08:35:48 | 显示全部楼层

这东西我收了!谢谢楼主!蓝光电影网真好!
回复 支持 反对

使用道具 举报

懒得打字嘛,点击右侧快捷回复 【右侧内容,后台自定义】
您需要登录后才可以回帖 登录 | 立即加入

本版积分规则

Archiver|小黑屋| 蓝光电影网 |网站地图

Copyright © 2021 Comsenz Inc. Powered by 蓝光电影网

蓝光电影网

本站内容由用户自主分享和转载自互联网,转载目的在于传递更多信息,并不代表本网赞同其观点和对其真实性负责。

如有侵权、违反国家法律政策行为,请联系我们,我们会第一时间及时清除和处理!

举报反馈邮箱:[email protected]

快速回复 返回顶部 返回列表