找回密码

蓝光电影网

查看: 336|回复: 0

[10bit.HDR] 过关斩将/威龙猛将 The.Running.Man.1987.2160p.UHD.BluRay.x265.10bit.HDR.DTS-HD.MA.7.1-SURCODE 39.64GB

[复制链接]
蓝光币
733
发表于 2021-10-28 09:10:45 | 显示全部楼层 |阅读模式


◎译  名 过关斩将/威龙猛将/跑步者/逃窜的人/魔鬼阿诺
◎片  名 The Running Man
◎年  代 1987
◎产  地 美国
◎类  别 行动 / 科幻 / 惊悚
◎语  言 英语
◎上映日期 1987-11-13
◎豆瓣评分 6.8/10 from 4983 users
◎豆瓣链接 https://movie.douban.com/subject/1292626/
◎片  长 101 分钟
◎导  演 保罗·迈克尔·格拉泽 Paul Michael Glaser
◎编  剧 斯蒂芬·金 Stephen King / 斯蒂芬·E.德·索萨 Steven E. de Souza
◎主  演 阿诺·施瓦辛格 Arnold Schwarzenegger
       玛利亚·康柯塔·阿隆索 Maria Conchita Alonso
       杰西·温图拉 Jesse Ventura
       Anthony Pena Anthony Pena
       爱德华·邦克 Edward Bunker
       史文-欧尔·托尔森 Sven-Ole Thorsen
       戴·扬 Dey Young
       罗德格尔·邦帕斯 Rodger Bumpass
       琳恩·玛丽·斯图尔特 Lynne Marie Stewart
       小托马斯·罗萨莱斯 Thomas Rosales Jr.
       罗杰·科恩 Roger Kern
       弗兰科·哥伦布 Franco Columbu
       博伊德·肯斯特纳 Boyd Kestner
       梅利莎·赫利 Melissa Hurley
       卡德罗莎·奥娜·卡罗尔
       理查德·道森 Richard Dawson
       米克·弗利特伍德 Mick Fleetwood
       Billy D. Lucas Billy D. Lucas
       林·沙烨 Lin Shaye
       乔治·P·威尔伯 George P. Wilbur
       柯特·富勒 Kurt Fuller
       吉姆·布朗 Jim Brown
       Dweezil Zappa Dweezil Zappa
       亚非特·科托 Yaphet Kotto
       Erland van Lidth Erland van Lidth
       田中通教授 Professor Toru Tanaka
       Karen Leigh Hopkins Karen Leigh Hopkins
◎标  签 行动 | 科幻 | 美国 | 施瓦辛格 | 暴力 | 1987 | 阿诺德·施瓦辛格 | 美国电影
◎简  介


  该片延续了施瓦辛格一向的豪杰气概。在2019年,美国已经成为了一个独裁国家,在这里,不允许有分歧的声音出现。本(阿诺?施瓦辛格 Arnold Schwarzenegger 饰)是一位差人,因对政府的号令不满,拒不履行号令而被判有罪遭到拘系。
  
  现在只要一个机遇能让本重获自在,那就是加入电视台的“过关斩将”节目并终极得胜。这个节目肆意曲解究竟,误导观众,节目里的有识之士被扭曲形象,遭到杀戮。本含辛茹苦从电视台逃出来后,结合了一班正义之士,预备杀回电视台拆穿这个节目标圈套!

  1. Video
  2. ID : 1
  3. Format : HEVC
  4. Format/Info : High Efficiency Video Coding
  5. Format profile : Main [email protected]@High
  6. HDR format : SMPTE ST 2086, HDR10 compatible
  7. Codec ID : V_MPEGH/ISO/HEVC
  8. Duration : 1 h 40 min
  9. Bit rate : 50.0 Mb/s
  10. Width : 3 840 pixels
  11. Height : 2 160 pixels
  12. Display aspect ratio : 16:9
  13. Frame rate mode : Constant
  14. Frame rate : 23.976 (24000/1001) FPS
  15. Color space : YUV
  16. Chroma subsampling : 4:2:0 (Type 2)
  17. Bit depth : 10 bits
  18. Bits/(Pixel*Frame) : 0.251
  19. Stream size : 35.2 GiB (90%)
  20. Writing library : x265 3.5+13-4c6880de4:[Windows][MSVC 1929][64 bit] 10bit
  21. Encoding settings : cpuid=1111039 / frame-threads=6 / numa-pools=32 / wpp / no-pmode / no-pme / no-psnr / no-ssim / log-level=2 / input-csp=1 / input-res=3840x2160 / interlace=0 / total-frames=145008 / level-idc=51 / high-tier=1 / uhd-bd=0 / ref=4 / no-allow-non-conformance / repeat-headers / annexb / aud / no-eob / no-eos / hrd / info / hash=0 / no-temporal-layers / no-open-gop / min-keyint=23 / keyint=250 / gop-lookahead=0 / bframes=4 / b-adapt=2 / b-pyramid / bframe-bias=0 / rc-lookahead=25 / lookahead-slices=4 / scenecut=40 / no-hist-scenecut / radl=0 / no-splice / no-intra-refresh / ctu=64 / min-cu-size=8 / rect / no-amp / max-tu-size=32 / tu-inter-depth=1 / tu-intra-depth=1 / limit-tu=0 / rdoq-level=2 / dynamic-rd=0.00 / no-ssim-rd / signhide / no-tskip / nr-intra=0 / nr-inter=0 / no-constrained-intra / no-strong-intra-smoothing / max-merge=3 / limit-refs=3 / limit-modes / me=3 / subme=3 / merange=57 / temporal-mvp / no-frame-dup / no-hme / weightp / no-weightb / no-analyze-src-pics / deblock=-3:-3 / no-sao / no-sao-non-deblock / rd=4 / selective-sao=0 / no-early-skip / rskip / no-fast-intra / no-tskip-fast / no-cu-lossless / no-b-intra / no-splitrd-skip / rdpenalty=0 / psy-rd=2.00 / psy-rdoq=1.00 / no-rd-refine / no-lossless / cbqpoffs=0 / crqpoffs=0 / rc=crf / crf=16.0 / qcomp=0.60 / qpstep=4 / stats-write=0 / stats-read=0 / vbv-maxrate=160000 / vbv-bufsize=160000 / vbv-init=0.9 / min-vbv-fullness=50.0 / max-vbv-fullness=80.0 / crf-max=0.0 / crf-min=0.0 / ipratio=1.40 / pbratio=1.30 / aq-mode=2 / aq-strength=1.00 / cutree / zone-count=0 / no-strict-cbr / qg-size=32 / no-rc-grain / qpmax=69 / qpmin=0 / no-const-vbv / sar=1 / overscan=0 / videoformat=5 / range=0 / colorprim=9 / transfer=16 / colormatrix=9 / chromaloc=1 / chromaloc-top=2 / chromaloc-bottom=2 / display-window=0 / master-display=G(13250,34500)B(7500,3000)R(34000,16000)WP(15635,16450)L(40000000,50) / cll=3966,523 / min-luma=0 / max-luma=1023 / log2-max-poc-lsb=8 / vui-timing-info / vui-hrd-info / slices=1 / no-opt-qp-pps / no-opt-ref-list-length-pps / no-multi-pass-opt-rps / scenecut-bias=0.05 / hist-threshold=0.03 / no-opt-cu-delta-qp / no-aq-motion / hdr10 / hdr10-opt / no-dhdr10-opt / no-idr-recovery-sei / analysis-reuse-level=0 / analysis-save-reuse-level=0 / analysis-load-reuse-level=0 / scale-factor=0 / refine-intra=0 / refine-inter=0 / refine-mv=1 / refine-ctu-distortion=0 / no-limit-sao / ctu-info=0 / no-lowpass-dct / refine-analysis-type=0 / copy-pic=1 / max-ausize-factor=1.0 / no-dynamic-refine / no-single-sei / no-hevc-aq / no-svt / no-field / qp-adaptation-range=1.00 / scenecut-aware-qp=0conformance-window-offsets / right=0 / bottom=0 / decoder-max-rate=0 / no-vbv-live-multi-pass
  22. Language : English
  23. Default : Yes
  24. Forced : No
  25. Color range : Limited
  26. Color primaries : BT.2020
  27. Transfer characteristics : PQ
  28. Matrix coefficients : BT.2020 non-constant
  29. Mastering display color primaries : Display P3
  30. Mastering display luminance : min: 0.0050 cd/m2, max: 4000 cd/m2
  31. Maximum Content Light Level : 3966 cd/m2
  32. Maximum Frame-Average Light Level : 523 cd/m2

  33. Audio #1
  34. ID : 2
  35. Format : DTS ES XLL
  36. Format/Info : Digital Theater Systems
  37. Commercial name : DTS-HD Master Audio
  38. Codec ID : A_DTS
  39. Duration : 1 h 40 min
  40. Bit rate mode : Variable
  41. Bit rate : 5 148 kb/s
  42. Channel(s) : 8 channels
  43. Channel layout : C L R Ls Rs LFE Lb Rb
  44. Sampling rate : 48.0 kHz
  45. Frame rate : 93.750 FPS (512 SPF)
  46. Bit depth : 24 bits
  47. Compression mode : Lossless
  48. Stream size : 3.63 GiB (9%)
  49. Title : surround 7.1
  50. Language : English
  51. Default : Yes
  52. Forced : No

  53. Audio #2
  54. ID : 3
  55. Format : AAC LC
  56. Format/Info : Advanced Audio Codec Low Complexity
  57. Codec ID : A_AAC-2
  58. Duration : 1 h 40 min
  59. Bit rate : 117 kb/s
  60. Channel(s) : 2 channels
  61. Channel layout : L R
  62. Sampling rate : 48.0 kHz
  63. Frame rate : 46.875 FPS (1024 SPF)
  64. Compression mode : Lossy
  65. Delay relative to video : 9 ms
  66. Stream size : 84.0 MiB (0%)
  67. Title : commentary
  68. Language : English
  69. Default : No
  70. Forced : No

  71. Audio #3
  72. ID : 4
  73. Format : AAC LC
  74. Format/Info : Advanced Audio Codec Low Complexity
  75. Codec ID : A_AAC-2
  76. Duration : 1 h 40 min
  77. Bit rate : 113 kb/s
  78. Channel(s) : 2 channels
  79. Channel layout : L R
  80. Sampling rate : 48.0 kHz
  81. Frame rate : 46.875 FPS (1024 SPF)
  82. Compression mode : Lossy
  83. Delay relative to video : 9 ms
  84. Stream size : 81.7 MiB (0%)
  85. Title : commentary
  86. Language : English
  87. Default : No
  88. Forced : No

  89. Text #1
  90. ID : 5
  91. Format : PGS
  92. Muxing mode : zlib
  93. Codec ID : S_HDMV/PGS
  94. Codec ID/Info : Picture based subtitle format used on BDs/HD-DVDs
  95. Duration : 1 h 38 min
  96. Bit rate : 33.3 kb/s
  97. Count of elements : 2292
  98. Stream size : 23.4 MiB (0%)
  99. Language : English
  100. Default : No
  101. Forced : No

  102. Text #2
  103. ID : 6
  104. Format : PGS
  105. Muxing mode : zlib
  106. Codec ID : S_HDMV/PGS
  107. Codec ID/Info : Picture based subtitle format used on BDs/HD-DVDs
  108. Duration : 1 h 39 min
  109. Bit rate : 26.6 kb/s
  110. Count of elements : 1858
  111. Stream size : 18.9 MiB (0%)
  112. Language : German
  113. Default : No
  114. Forced : No

  115. Text #3
  116. ID : 7
  117. Format : PGS
  118. Muxing mode : zlib
  119. Codec ID : S_HDMV/PGS
  120. Codec ID/Info : Picture based subtitle format used on BDs/HD-DVDs
  121. Duration : 1 h 40 min
  122. Bit rate : 43.6 kb/s
  123. Count of elements : 1928
  124. Stream size : 31.2 MiB (0%)
  125. Language : German
  126. Default : No
  127. Forced : No

  128. Text #4
  129. ID : 8
  130. Format : PGS
  131. Muxing mode : zlib
  132. Codec ID : S_HDMV/PGS
  133. Codec ID/Info : Picture based subtitle format used on BDs/HD-DVDs
  134. Duration : 1 h 40 min
  135. Bit rate : 49.2 kb/s
  136. Count of elements : 1936
  137. Stream size : 35.3 MiB (0%)
  138. Language : German
  139. Default : No
  140. Forced : No

  141. Menu
  142. 00:00:00.000 : en:Chapter 01
  143. 00:03:22.202 : en:Chapter 02
  144. 00:13:41.028 : en:Chapter 03
  145. 00:21:57.774 : en:Chapter 04
  146. 00:29:00.739 : en:Chapter 05
  147. 00:34:46.084 : en:Chapter 06
  148. 00:40:24.797 : en:Chapter 07
  149. 00:45:14.962 : en:Chapter 08
  150. 00:50:00.914 : en:Chapter 09
  151. 00:55:49.262 : en:Chapter 10
  152. 01:02:37.378 : en:Chapter 11
  153. 01:09:11.772 : en:Chapter 12
  154. 01:16:41.096 : en:Chapter 13
  155. 01:23:29.921 : en:Chapter 14
  156. 01:29:39.957 : en:Chapter 15
  157. 01:33:25.391 : en:Chapter 16
  158. 01:40:42.828 : en:Chapter 17
复制代码




                                       

                                       
                                       
                                       




回复

使用道具 举报

懒得打字嘛,点击右侧快捷回复 【右侧内容,后台自定义】
您需要登录后才可以回帖 登录 | 立即加入

本版积分规则

Archiver|小黑屋| 蓝光电影网 |网站地图

Copyright © 2021 Comsenz Inc. Powered by 蓝光电影网

蓝光电影网

本站内容由用户自主分享和转载自互联网,转载目的在于传递更多信息,并不代表本网赞同其观点和对其真实性负责。

如有侵权、违反国家法律政策行为,请联系我们,我们会第一时间及时清除和处理!

举报反馈邮箱:[email protected]

快速回复 返回顶部 返回列表