找回密码

蓝光电影网

查看: 277|回复: 1

[10bit.HDR] 屏住呼吸2/别呼吸2 Dont.Breathe.2.2021.2160p.UHD.BluRay.x265.10bit.HDR.TrueHD.7.1.Atmos-B0MBARDiERS 20.04GB

[复制链接]
蓝光币
682
发表于 2021-10-28 09:09:49 | 显示全部楼层 |阅读模式


◎译  名 屏住呼吸2/别呼吸2/临时停止呼吸2(台)/禁室杀戮2(港)
◎片  名 Don't Breathe 2
◎年  代 2021
◎产  地 美国,塞尔维亚
◎类  别 惊悚 / 可骇
◎语  言 英语
◎上映日期 2021-08-13(美国)
◎豆瓣评分 6.5/10 from 18198 users
◎豆瓣链接 https://movie.douban.com/subject/26915921/
◎片  长 98分钟
◎导  演 罗多·赛亚格斯 Rodo Sayagues
◎编  剧 费德·阿尔瓦雷兹 Fede Alvarez / 罗多·赛亚格斯 Rodo Sayagues
◎主  演 史蒂芬·朗 Stephen Lang
       布兰登·萨克斯顿 Brendan Sexton III
       马德琳·格雷斯 Madelyn Grace
       罗奇·威廉姆斯 Rocci Williams
       斯蒂芬妮·阿西拉 Stephanie Arcila
       鲍比·斯科菲尔德 Bobby Schofield
       戴安娜·巴尼科娃 Diaana Babnicova
       亚当·扬 Adam Young
       克里斯蒂安·泽吉亚 Christian Zagia
       罗恩·罗格尔 Ron Rogell
       菲奥娜·奥肖内西 Fiona O'Shaughnessy
◎标  签 惊悚 | 犯罪 | 美国 | 悬疑 | 2021 | 可骇 | 美国电影 | 电影
◎简  介


  《屏住呼吸1》编剧罗多·赛亚格斯执导,并同前作导演费德·阿尔瓦雷兹一路写剧本,史蒂芬·朗、罗奇·威廉姆斯、斯蒂芬妮·阿西拉、鲍比·斯科菲尔德、亚当·扬等主演。
  
  故事发生在最初致命的入室抢劫以后的几年,眼盲的退伍老兵诺曼过着安静的生活,直到曩昔的罪行起头找上他。

  1. Video
  2. ID : 1
  3. Format : HEVC
  4. Format/Info : High Efficiency Video Coding
  5. Format profile : Main [email protected]@High
  6. HDR format : SMPTE ST 2086, HDR10 compatible
  7. Codec ID : V_MPEGH/ISO/HEVC
  8. Duration : 1 h 38 min
  9. Bit rate : 23.7 Mb/s
  10. Width : 3 840 pixels
  11. Height : 1 608 pixels
  12. Display aspect ratio : 2.40:1
  13. Frame rate mode : Constant
  14. Frame rate : 23.976 (24000/1001) FPS
  15. Color space : YUV
  16. Chroma subsampling : 4:2:0 (Type 2)
  17. Bit depth : 10 bits
  18. Bits/(Pixel*Frame) : 0.160
  19. Stream size : 16.3 GiB (82%)
  20. Writing library : x265 3.5+19-8003e4382:[Windows][GCC 11.2.0][64 bit] 10bit
  21. Encoding settings : cpuid=1176575 / frame-threads=5 / numa-pools=36 / wpp / no-pmode / no-pme / no-psnr / no-ssim / log-level=2 / input-csp=1 / input-res=3840x1608 / interlace=0 / total-frames=141336 / level-idc=51 / high-tier=1 / uhd-bd=0 / ref=4 / no-allow-non-conformance / repeat-headers / annexb / aud / no-eob / no-eos / hrd / info / hash=0 / no-temporal-layers / open-gop / min-keyint=23 / keyint=250 / gop-lookahead=0 / bframes=4 / b-adapt=2 / b-pyramid / bframe-bias=0 / rc-lookahead=25 / lookahead-slices=4 / scenecut=40 / no-hist-scenecut / radl=0 / no-splice / no-intra-refresh / ctu=64 / min-cu-size=8 / rect / no-amp / max-tu-size=32 / tu-inter-depth=1 / tu-intra-depth=1 / limit-tu=0 / rdoq-level=2 / dynamic-rd=0.00 / no-ssim-rd / signhide / no-tskip / nr-intra=0 / nr-inter=0 / no-constrained-intra / strong-intra-smoothing / max-merge=3 / limit-refs=3 / limit-modes / me=3 / subme=3 / merange=57 / temporal-mvp / no-frame-dup / no-hme / weightp / no-weightb / no-analyze-src-pics / deblock=-3:-3 / no-sao / no-sao-non-deblock / rd=4 / selective-sao=0 / no-early-skip / rskip / no-fast-intra / no-tskip-fast / no-cu-lossless / no-b-intra / no-splitrd-skip / rdpenalty=0 / psy-rd=2.00 / psy-rdoq=1.00 / no-rd-refine / no-lossless / cbqpoffs=0 / crqpoffs=0 / rc=crf / crf=14.0 / qcomp=0.60 / qpstep=4 / stats-write=0 / stats-read=0 / vbv-maxrate=160000 / vbv-bufsize=160000 / vbv-init=0.9 / min-vbv-fullness=50.0 / max-vbv-fullness=80.0 / crf-max=0.0 / crf-min=0.0 / ipratio=1.40 / pbratio=1.30 / aq-mode=2 / aq-strength=1.00 / cutree / zone-count=0 / no-strict-cbr / qg-size=32 / no-rc-grain / qpmax=69 / qpmin=0 / no-const-vbv / sar=1 / overscan=0 / videoformat=5 / range=0 / colorprim=9 / transfer=16 / colormatrix=9 / chromaloc=1 / chromaloc-top=2 / chromaloc-bottom=2 / display-window=0 / master-display=G(8500,39850)B(6550,2300)R(35400,14600)WP(15635,16450)L(10000000,1) / cll=995,372 / min-luma=0 / max-luma=1023 / log2-max-poc-lsb=8 / vui-timing-info / vui-hrd-info / slices=1 / no-opt-qp-pps / no-opt-ref-list-length-pps / no-multi-pass-opt-rps / scenecut-bias=0.05 / hist-threshold=0.03 / no-opt-cu-delta-qp / no-aq-motion / hdr10 / hdr10-opt / no-dhdr10-opt / no-idr-recovery-sei / analysis-reuse-level=0 / analysis-save-reuse-level=0 / analysis-load-reuse-level=0 / scale-factor=0 / refine-intra=0 / refine-inter=0 / refine-mv=1 / refine-ctu-distortion=0 / no-limit-sao / ctu-info=0 / no-lowpass-dct / refine-analysis-type=0 / copy-pic=1 / max-ausize-factor=1.0 / no-dynamic-refine / no-single-sei / no-hevc-aq / no-svt / no-field / qp-adaptation-range=1.00 / scenecut-aware-qp=0conformance-window-offsets / right=0 / bottom=0 / decoder-max-rate=0 / no-vbv-live-multi-pass
  22. Default : Yes
  23. Forced : No
  24. Color range : Limited
  25. Color primaries : BT.2020
  26. Transfer characteristics : PQ
  27. Matrix coefficients : BT.2020 non-constant
  28. Mastering display color primaries : BT.2020
  29. Mastering display luminance : min: 0.0001 cd/m2, max: 1000 cd/m2
  30. Maximum Content Light Level : 995 cd/m2
  31. Maximum Frame-Average Light Level : 372 cd/m2

  32. Audio #1
  33. ID : 2
  34. Format : MLP FBA 16-ch
  35. Format/Info : Meridian Lossless Packing FBA with 16-channel presentation
  36. Commercial name : Dolby TrueHD with Dolby Atmos
  37. Codec ID : A_TRUEHD
  38. Duration : 1 h 38 min
  39. Bit rate mode : Variable
  40. Bit rate : 4 174 kb/s
  41. Maximum bit rate : 7 536 kb/s
  42. Channel(s) : 8 channels
  43. Channel layout : L R C LFE Ls Rs Lb Rb
  44. Sampling rate : 48.0 kHz
  45. Frame rate : 1 200.000 FPS (40 SPF)
  46. Compression mode : Lossless
  47. Stream size : 2.86 GiB (14%)
  48. Language : English
  49. Default : Yes
  50. Forced : No
  51. Number of dynamic objects : 11
  52. Bed channel count : 1 channel
  53. Bed channel configuration : LFE

  54. Audio #2
  55. ID : 3
  56. Format : AC-3
  57. Format/Info : Audio Coding 3
  58. Commercial name : Dolby Digital
  59. Codec ID : A_AC3
  60. Duration : 1 h 38 min
  61. Bit rate mode : Constant
  62. Bit rate : 640 kb/s
  63. Channel(s) : 6 channels
  64. Channel layout : L R C LFE Ls Rs
  65. Sampling rate : 48.0 kHz
  66. Frame rate : 31.250 FPS (1536 SPF)
  67. Compression mode : Lossy
  68. Stream size : 450 MiB (2%)
  69. Language : English
  70. Service kind : Complete Main
  71. Default : Yes
  72. Forced : No

  73. Audio #3
  74. ID : 4
  75. Format : AAC LC
  76. Format/Info : Advanced Audio Codec Low Complexity
  77. Codec ID : A_AAC-2
  78. Duration : 1 h 38 min
  79. Bit rate : 117 kb/s
  80. Channel(s) : 2 channels
  81. Channel layout : L R
  82. Sampling rate : 48.0 kHz
  83. Frame rate : 46.875 FPS (1024 SPF)
  84. Compression mode : Lossy
  85. Delay relative to video : 9 ms
  86. Stream size : 82.1 MiB (0%)
  87. Title : Commentary
  88. Language : English
  89. Default : Yes
  90. Forced : No

  91. Text #1
  92. ID : 5
  93. Format : PGS
  94. Muxing mode : zlib
  95. Codec ID : S_HDMV/PGS
  96. Codec ID/Info : Picture based subtitle format used on BDs/HD-DVDs
  97. Duration : 1 h 30 min
  98. Bit rate : 14.9 kb/s
  99. Count of elements : 1466
  100. Stream size : 9.67 MiB (0%)
  101. Title : English SDH
  102. Language : English
  103. Default : No
  104. Forced : No

  105. Text #2
  106. ID : 6
  107. Format : PGS
  108. Muxing mode : zlib
  109. Codec ID : S_HDMV/PGS
  110. Codec ID/Info : Picture based subtitle format used on BDs/HD-DVDs
  111. Duration : 1 h 26 min
  112. Bit rate : 9 894 b/s
  113. Count of elements : 986
  114. Stream size : 6.15 MiB (0%)
  115. Title : English
  116. Language : English
  117. Default : No
  118. Forced : No

  119. Text #3
  120. ID : 7
  121. Format : PGS
  122. Muxing mode : zlib
  123. Codec ID : S_HDMV/PGS
  124. Codec ID/Info : Picture based subtitle format used on BDs/HD-DVDs
  125. Duration : 1 h 36 min
  126. Bit rate : 7 679 b/s
  127. Count of elements : 918
  128. Stream size : 5.29 MiB (0%)
  129. Title : Chinese
  130. Language : Chinese
  131. Default : No
  132. Forced : No

  133. Text #4
  134. ID : 8
  135. Format : PGS
  136. Muxing mode : zlib
  137. Codec ID : S_HDMV/PGS
  138. Codec ID/Info : Picture based subtitle format used on BDs/HD-DVDs
  139. Duration : 1 h 36 min
  140. Bit rate : 7 595 b/s
  141. Count of elements : 914
  142. Stream size : 5.23 MiB (0%)
  143. Title : Chinese
  144. Language : Chinese
  145. Default : No
  146. Forced : No

  147. Text #5
  148. ID : 9
  149. Format : PGS
  150. Muxing mode : zlib
  151. Codec ID : S_HDMV/PGS
  152. Codec ID/Info : Picture based subtitle format used on BDs/HD-DVDs
  153. Duration : 1 h 36 min
  154. Bit rate : 7 190 b/s
  155. Count of elements : 916
  156. Stream size : 4.95 MiB (0%)
  157. Title : Chinese
  158. Language : Chinese
  159. Default : No
  160. Forced : No

  161. Text #6
  162. ID : 10
  163. Format : PGS
  164. Muxing mode : zlib
  165. Codec ID : S_HDMV/PGS
  166. Codec ID/Info : Picture based subtitle format used on BDs/HD-DVDs
  167. Duration : 1 h 36 min
  168. Bit rate : 8 093 b/s
  169. Count of elements : 846
  170. Stream size : 5.57 MiB (0%)
  171. Title : French
  172. Language : French
  173. Default : No
  174. Forced : No

  175. Text #7
  176. ID : 11
  177. Format : PGS
  178. Muxing mode : zlib
  179. Codec ID : S_HDMV/PGS
  180. Codec ID/Info : Picture based subtitle format used on BDs/HD-DVDs
  181. Duration : 1 h 36 min
  182. Bit rate : 9 795 b/s
  183. Count of elements : 906
  184. Stream size : 6.74 MiB (0%)
  185. Title : Indonesian
  186. Language : Indonesian
  187. Default : No
  188. Forced : No

  189. Text #8
  190. ID : 12
  191. Format : PGS
  192. Muxing mode : zlib
  193. Codec ID : S_HDMV/PGS
  194. Codec ID/Info : Picture based subtitle format used on BDs/HD-DVDs
  195. Duration : 1 h 36 min
  196. Bit rate : 7 309 b/s
  197. Count of elements : 924
  198. Stream size : 5.03 MiB (0%)
  199. Title : Korean
  200. Language : Korean
  201. Default : No
  202. Forced : No

  203. Text #9
  204. ID : 13
  205. Format : PGS
  206. Muxing mode : zlib
  207. Codec ID : S_HDMV/PGS
  208. Codec ID/Info : Picture based subtitle format used on BDs/HD-DVDs
  209. Duration : 1 h 36 min
  210. Bit rate : 10.4 kb/s
  211. Count of elements : 910
  212. Stream size : 7.16 MiB (0%)
  213. Title : Malay
  214. Language : Malay
  215. Default : No
  216. Forced : No

  217. Text #10
  218. ID : 14
  219. Format : PGS
  220. Muxing mode : zlib
  221. Codec ID : S_HDMV/PGS
  222. Codec ID/Info : Picture based subtitle format used on BDs/HD-DVDs
  223. Duration : 1 h 36 min
  224. Bit rate : 9 196 b/s
  225. Count of elements : 890
  226. Stream size : 6.33 MiB (0%)
  227. Title : Portuguese
  228. Language : Portuguese
  229. Default : No
  230. Forced : No

  231. Text #11
  232. ID : 15
  233. Format : PGS
  234. Muxing mode : zlib
  235. Codec ID : S_HDMV/PGS
  236. Codec ID/Info : Picture based subtitle format used on BDs/HD-DVDs
  237. Duration : 1 h 36 min
  238. Bit rate : 9 040 b/s
  239. Count of elements : 896
  240. Stream size : 6.22 MiB (0%)
  241. Title : Spanish
  242. Language : Spanish
  243. Default : No
  244. Forced : No

  245. Text #12
  246. ID : 16
  247. Format : PGS
  248. Muxing mode : zlib
  249. Codec ID : S_HDMV/PGS
  250. Codec ID/Info : Picture based subtitle format used on BDs/HD-DVDs
  251. Duration : 1 h 36 min
  252. Bit rate : 8 157 b/s
  253. Count of elements : 914
  254. Stream size : 5.62 MiB (0%)
  255. Title : Thai
  256. Language : Thai
  257. Default : No
  258. Forced : No

  259. Text #13
  260. ID : 17
  261. Format : PGS
  262. Muxing mode : zlib
  263. Codec ID : S_HDMV/PGS
  264. Codec ID/Info : Picture based subtitle format used on BDs/HD-DVDs
  265. Duration : 1 h 36 min
  266. Bit rate : 71 b/s
  267. Count of elements : 6
  268. Stream size : 50.6 KiB (0%)
  269. Title : French
  270. Language : French
  271. Default : No
  272. Forced : No

  273. Text #14
  274. ID : 18
  275. Format : PGS
  276. Muxing mode : zlib
  277. Codec ID : S_HDMV/PGS
  278. Codec ID/Info : Picture based subtitle format used on BDs/HD-DVDs
  279. Duration : 1 h 31 min
  280. Bit rate : 37.5 kb/s
  281. Count of elements : 2317
  282. Stream size : 24.6 MiB (0%)
  283. Title : Commentary
  284. Language : English
  285. Default : No
  286. Forced : No

  287. Text #15
  288. ID : 19
  289. Format : PGS
  290. Muxing mode : zlib
  291. Codec ID : S_HDMV/PGS
  292. Codec ID/Info : Picture based subtitle format used on BDs/HD-DVDs
  293. Duration : 1 h 31 min
  294. Bit rate : 28.7 kb/s
  295. Count of elements : 2050
  296. Stream size : 18.8 MiB (0%)
  297. Title : Chinese
  298. Language : Chinese
  299. Default : No
  300. Forced : No

  301. Text #16
  302. ID : 20
  303. Format : PGS
  304. Muxing mode : zlib
  305. Codec ID : S_HDMV/PGS
  306. Codec ID/Info : Picture based subtitle format used on BDs/HD-DVDs
  307. Duration : 1 h 31 min
  308. Bit rate : 26.3 kb/s
  309. Count of elements : 2050
  310. Stream size : 17.2 MiB (0%)
  311. Title : Korean
  312. Language : Korean
  313. Default : No
  314. Forced : No

  315. Text #17
  316. ID : 21
  317. Format : PGS
  318. Muxing mode : zlib
  319. Codec ID : S_HDMV/PGS
  320. Codec ID/Info : Picture based subtitle format used on BDs/HD-DVDs
  321. Duration : 1 h 31 min
  322. Bit rate : 32.5 kb/s
  323. Count of elements : 1980
  324. Stream size : 21.3 MiB (0%)
  325. Title : Portuguese
  326. Language : Portuguese
  327. Default : No
  328. Forced : No

  329. Text #18
  330. ID : 22
  331. Format : PGS
  332. Muxing mode : zlib
  333. Codec ID : S_HDMV/PGS
  334. Codec ID/Info : Picture based subtitle format used on BDs/HD-DVDs
  335. Duration : 1 h 31 min
  336. Bit rate : 32.4 kb/s
  337. Count of elements : 2034
  338. Stream size : 21.2 MiB (0%)
  339. Title : Spanish
  340. Language : Spanish
  341. Default : No
  342. Forced : No

  343. Text #19
  344. ID : 23
  345. Format : PGS
  346. Muxing mode : zlib
  347. Codec ID : S_HDMV/PGS
  348. Codec ID/Info : Picture based subtitle format used on BDs/HD-DVDs
  349. Duration : 1 h 31 min
  350. Bit rate : 32.8 kb/s
  351. Count of elements : 2050
  352. Stream size : 21.5 MiB (0%)
  353. Title : Thai
  354. Language : Thai
  355. Default : No
  356. Forced : No

  357. Text #20
  358. ID : 24
  359. Format : PGS
  360. Muxing mode : zlib
  361. Codec ID : S_HDMV/PGS
  362. Codec ID/Info : Picture based subtitle format used on BDs/HD-DVDs
  363. Duration : 1 h 31 min
  364. Bit rate : 66.3 kb/s
  365. Count of elements : 3264
  366. Stream size : 43.3 MiB (0%)
  367. Title : English
  368. Language : English
  369. Default : No
  370. Forced : No

  371. Text #21
  372. ID : 25
  373. Format : PGS
  374. Muxing mode : zlib
  375. Codec ID : S_HDMV/PGS
  376. Codec ID/Info : Picture based subtitle format used on BDs/HD-DVDs
  377. Duration : 1 h 30 min
  378. Bit rate : 50.1 kb/s
  379. Count of elements : 3190
  380. Stream size : 32.6 MiB (0%)
  381. Title : Chinese
  382. Language : Chinese
  383. Default : No
  384. Forced : No

  385. Text #22
  386. ID : 26
  387. Format : PGS
  388. Muxing mode : zlib
  389. Codec ID : S_HDMV/PGS
  390. Codec ID/Info : Picture based subtitle format used on BDs/HD-DVDs
  391. Duration : 1 h 30 min
  392. Bit rate : 46.1 kb/s
  393. Count of elements : 3190
  394. Stream size : 29.9 MiB (0%)
  395. Title : Korean
  396. Language : Korean
  397. Default : No
  398. Forced : No

  399. Text #23
  400. ID : 27
  401. Format : PGS
  402. Muxing mode : zlib
  403. Codec ID : S_HDMV/PGS
  404. Codec ID/Info : Picture based subtitle format used on BDs/HD-DVDs
  405. Duration : 1 h 30 min
  406. Bit rate : 53.2 kb/s
  407. Count of elements : 3105
  408. Stream size : 34.6 MiB (0%)
  409. Title : Portuguese
  410. Language : Portuguese
  411. Default : No
  412. Forced : No

  413. Text #24
  414. ID : 28
  415. Format : PGS
  416. Muxing mode : zlib
  417. Codec ID : S_HDMV/PGS
  418. Codec ID/Info : Picture based subtitle format used on BDs/HD-DVDs
  419. Duration : 1 h 30 min
  420. Bit rate : 55.5 kb/s
  421. Count of elements : 3190
  422. Stream size : 36.0 MiB (0%)
  423. Title : Thai
  424. Language : Thai
  425. Default : No
  426. Forced : No

  427. Menu
  428. 00:00:00.000 : en:Chapter 01
  429. 00:04:06.371 : en:Chapter 02
  430. 00:08:39.477 : en:Chapter 03
  431. 00:13:10.790 : en:Chapter 04
  432. 00:19:12.777 : en:Chapter 05
  433. 00:24:10.658 : en:Chapter 06
  434. 00:28:03.891 : en:Chapter 07
  435. 00:31:33.934 : en:Chapter 08
  436. 00:37:15.108 : en:Chapter 09
  437. 00:41:25.942 : en:Chapter 10
  438. 00:45:21.928 : en:Chapter 11
  439. 00:50:37.243 : en:Chapter 12
  440. 00:55:42.798 : en:Chapter 13
  441. 01:02:19.861 : en:Chapter 14
  442. 01:09:26.537 : en:Chapter 15
  443. 01:18:19.653 : en:Chapter 16
复制代码





                                       
                                       

                                       
                                       
                                       




回复

使用道具 举报

蓝光币
100
发表于 2021-10-28 18:11:57 | 显示全部楼层

我看不错噢 谢谢楼主!蓝光电影网越来越好!
回复 支持 反对

使用道具 举报

懒得打字嘛,点击右侧快捷回复 【右侧内容,后台自定义】
您需要登录后才可以回帖 登录 | 立即加入

本版积分规则

Archiver|小黑屋| 蓝光电影网 |网站地图

Copyright © 2021 Comsenz Inc. Powered by 蓝光电影网

蓝光电影网

本站内容由用户自主分享和转载自互联网,转载目的在于传递更多信息,并不代表本网赞同其观点和对其真实性负责。

如有侵权、违反国家法律政策行为,请联系我们,我们会第一时间及时清除和处理!

举报反馈邮箱:[email protected]

快速回复 返回顶部 返回列表