找回密码

蓝光电影网

查看: 150|回复: 0

[喜剧] 老爸的烦恼/关关雎鸠 Squeak-squeak.1963.FRENCH.1080p.NF.WEBRip.DDP2.0.x264-playWEB 4.58GB

[复制链接]
蓝光币
682
发表于 2021-10-28 09:44:18 | 显示全部楼层 |阅读模式


◎译  名 爸爸的懊恼/关关雎鸠
◎片  名 Pouic-Pouic
◎年  代 1963
◎产  地 法国
◎类  别 笑剧
◎语  言 法语
◎上映日期 1963-11-20(法国)
◎豆瓣评分 7.8/10 from 328 users
◎豆瓣链接 https://movie.douban.com/subject/1473128/
◎片  长 West Germany: 86 分钟
◎导  演 让·吉罗 Jean Girault
◎编  剧 让·吉罗 Jean Girault / 雅克·维尔弗里德 Jacques Vilfrid
◎主  演 路易·德·菲奈斯 Louis de Funès
       米蕾叶·达尔克 Mireille Darc
       罗杰·杜马斯 Roger Dumas
       菲利普·尼科 Philippe Nicaud
       克里斯蒂安·马兰 Christian Marin
       Jacqueline Maillan Jacqueline Maillan
       菲利普·迪马 Philippe Dumat
       丹尼尔·塞卡尔迪 Daniel Ceccaldi
       伊夫·巴萨克 Yves Barsacq
       盖·崔扬 Guy Tréjan
◎标  签 笑剧 | 法国 | 路易·德·菲耐斯 | 法国电影 | 1963 | 典范 | LouisdeFunès | 1960s
◎简  介


  脑筋简单却具有百万产业的安托瓦爱上了年轻美貌的帕达丽夏,全日纠缠不休。为了摆脱这个使人厌恶的家伙,帕达丽夏雇佣了一个叫西蒙的汉子伪装自己的丈夫。现在帕达丽夏的怙恃正在国表面光,为了给帕达丽夏的父亲一个欣喜,母亲花重金买下了一块传闻蕴藏丰富石油的地盘作为生日礼物送给他,但很快大师发现卖地盘的人是一个骗子。为了把这块地盘转手卖进来,父亲想到了追求女儿的安托瓦。
  
  但此时帕达丽夏已经有了“丈夫”,斟酌到快要为了这块地盘而发狂的父亲,帕达丽夏只得赞成把安托瓦约抵家中度周末,并慌称西蒙是自己刚从国外返来的哥哥。
  
  西蒙和岳父向安托瓦大力保举着那块可以令他发家的地盘,正巧帕达丽夏外出观光的弟弟保尔带着女友帕尔玛回抵家中。因而一家人起头一路表演这场闹剧。帕达丽夏用自己的魅力吸引着安托瓦的留意,父亲则使出满身解数想要安托瓦签支票买下地盘。
  
  西蒙看出帕尔玛有题目,用计套出了帕尔玛的实在身份。她原本只是一个夜总会的女招待,看到保尔脱手风雅,便骗保尔说自己是将军的女儿。究竟上她只是想获得保尔的财富。此次在保尔家,帕尔玛发现安托瓦比保尔更有钱,因而改投安托瓦怀抱。西蒙和帕尔玛告竣协议,只要帕尔玛勾引安托瓦签支票,西蒙就不会在众人眼前流露她的底细。
  
  安托瓦终极赞成买下这块地盘,他已经被帕尔玛迷得天旋地转。安托瓦带着帕尔玛回到自己家,帕达丽夏终究摆脱了他。现在帕达丽夏和西蒙之间发生了很是奥妙的豪情,西蒙终究成为了帕达丽夏实在的丈夫。
  1. Video
  2. ID                                       : 1
  3. Format                                   : AVC
  4. Format/Info                              : Advanced Video Codec
  5. Format profile                           : [email protected]
  6. Format settings                          : CABAC / 3 Ref Frames
  7. Format settings, CABAC                   : Yes
  8. Format settings, Reference frames        : 3 frames
  9. Codec ID                                 : V_MPEG4/ISO/AVC
  10. Duration                                 : 1 h 26 min
  11. Bit rate mode                            : Variable
  12. Bit rate                                 : 7 500 kb/s
  13. Maximum bit rate                         : 11.2 Mb/s
  14. Width                                    : 1 920 pixels
  15. Height                                   : 1 080 pixels
  16. Display aspect ratio                     : 16:9
  17. Frame rate mode                          : Constant
  18. Frame rate                               : 24.000 FPS
  19. Color space                              : YUV
  20. Chroma subsampling                       : 4:2:0
  21. Bit depth                                : 8 bits
  22. Scan type                                : Progressive
  23. Bits/(Pixel*Frame)                       : 0.151
  24. Stream size                              : 4.50 GiB (98%)
  25. Writing library                          : x264 core 148 r2724 dbe0335
  26. Encoding settings                        : cabac=1 / ref=3 / deblock=1:0:0 / analyse=0x1:0x111 / me=umh / subme=10 / psy=1 / psy_rd=1.00:0.00 / mixed_ref=1 / me_range=24 / chroma_me=1 / trellis=2 / 8x8dct=0 / cqm=0 / deadzone=21,11 / fast_pskip=1 / chroma_qp_offset=-2 / threads=8 / lookahead_threads=1 / sliced_threads=0 / nr=0 / decimate=1 / interlaced=0 / bluray_compat=0 / stitchable=1 / constrained_intra=0 / bframes=2 / b_pyramid=0 / b_adapt=2 / b_bias=0 / direct=3 / weightb=1 / open_gop=0 / weightp=2 / keyint=250 / keyint_min=24 / scenecut=0 / intra_refresh=0 / rc_lookahead=48 / rc=2pass / mbtree=1 / bitrate=7500 / ratetol=1.0 / qcomp=0.50 / qpmin=6 / qpmax=51 / qpstep=4 / cplxblur=20.0 / qblur=0.5 / vbv_maxrate=11250 / vbv_bufsize=15000 / nal_hrd=vbr / filler=0 / ip_ratio=1.40 / aq=1:1.00
  27. Default                                  : Yes
  28. Forced                                   : No
  29. Audio
  30. ID                                       : 2
  31. Format                                   : E-AC-3
  32. Format/Info                              : Enhanced AC-3
  33. Commercial name                          : Dolby Digital Plus
  34. Codec ID                                 : A_EAC3
  35. Duration                                 : 1 h 26 min
  36. Bit rate mode                            : Constant
  37. Bit rate                                 : 128 kb/s
  38. Channel(s)                               : 2 channels
  39. Channel layout                           : L R
  40. Sampling rate                            : 48.0 kHz
  41. Frame rate                               : 31.250 FPS (1536 SPF)
  42. Compression mode                         : Lossy
  43. Stream size                              : 79.4 MiB (2%)
  44. Title                                    : French
  45. Language                                 : French
  46. Service kind                             : Complete Main
  47. Default                                  : No
  48. Forced                                   : No
  49. Text #1
  50. ID                                       : 3
  51. Format                                   : UTF-8
  52. Codec ID                                 : S_TEXT/UTF8
  53. Codec ID/Info                            : UTF-8 Plain Text
  54. Duration                                 : 1 h 26 min
  55. Bit rate                                 : 72 b/s
  56. Count of elements                        : 1429
  57. Stream size                              : 45.9 KiB (0%)
  58. Title                                    : English
  59. Language                                 : English
  60. Default                                  : No
  61. Forced                                   : No
  62. Text #2
  63. ID                                       : 4
  64. Format                                   : UTF-8
  65. Codec ID                                 : S_TEXT/UTF8
  66. Codec ID/Info                            : UTF-8 Plain Text
  67. Duration                                 : 1 h 26 min
  68. Bit rate                                 : 66 b/s
  69. Count of elements                        : 1416
  70. Stream size                              : 42.0 KiB (0%)
  71. Title                                    : Croatian
  72. Language                                 : Croatian
  73. Default                                  : No
  74. Forced                                   : No
  75. Text #3
  76. ID                                       : 5
  77. Format                                   : UTF-8
  78. Codec ID                                 : S_TEXT/UTF8
  79. Codec ID/Info                            : UTF-8 Plain Text
  80. Duration                                 : 1 h 26 min
  81. Bit rate                                 : 74 b/s
  82. Count of elements                        : 1427
  83. Stream size                              : 46.9 KiB (0%)
  84. Title                                    : Czech
  85. Language                                 : Czech
  86. Default                                  : No
  87. Forced                                   : No
  88. Text #4
  89. ID                                       : 6
  90. Format                                   : UTF-8
  91. Codec ID                                 : S_TEXT/UTF8
  92. Codec ID/Info                            : UTF-8 Plain Text
  93. Duration                                 : 1 h 26 min
  94. Bit rate                                 : 73 b/s
  95. Count of elements                        : 1429
  96. Stream size                              : 46.7 KiB (0%)
  97. Title                                    : Danish
  98. Language                                 : Danish
  99. Default                                  : No
  100. Forced                                   : No
  101. Text #5
  102. ID                                       : 7
  103. Format                                   : UTF-8
  104. Codec ID                                 : S_TEXT/UTF8
  105. Codec ID/Info                            : UTF-8 Plain Text
  106. Duration                                 : 1 h 25 min
  107. Bit rate                                 : 71 b/s
  108. Count of elements                        : 1475
  109. Stream size                              : 44.9 KiB (0%)
  110. Title                                    : Dutch
  111. Language                                 : Dutch
  112. Default                                  : No
  113. Forced                                   : No
  114. Text #6
  115. ID                                       : 8
  116. Format                                   : UTF-8
  117. Codec ID                                 : S_TEXT/UTF8
  118. Codec ID/Info                            : UTF-8 Plain Text
  119. Duration                                 : 1 h 26 min
  120. Bit rate                                 : 76 b/s
  121. Count of elements                        : 1407
  122. Stream size                              : 48.6 KiB (0%)
  123. Title                                    : Finnish
  124. Language                                 : Finnish
  125. Default                                  : No
  126. Forced                                   : No
  127. Text #7
  128. ID                                       : 9
  129. Format                                   : UTF-8
  130. Codec ID                                 : S_TEXT/UTF8
  131. Codec ID/Info                            : UTF-8 Plain Text
  132. Duration                                 : 1 h 26 min
  133. Bit rate                                 : 102 b/s
  134. Count of elements                        : 1589
  135. Stream size                              : 64.8 KiB (0%)
  136. Title                                    : French
  137. Language                                 : French
  138. Default                                  : No
  139. Forced                                   : No
  140. Text #8
  141. ID                                       : 10
  142. Format                                   : UTF-8
  143. Codec ID                                 : S_TEXT/UTF8
  144. Codec ID/Info                            : UTF-8 Plain Text
  145. Duration                                 : 1 h 26 min
  146. Bit rate                                 : 122 b/s
  147. Count of elements                        : 1428
  148. Stream size                              : 77.6 KiB (0%)
  149. Title                                    : Greek
  150. Language                                 : Greek
  151. Default                                  : No
  152. Forced                                   : No
  153. Text #9
  154. ID                                       : 11
  155. Format                                   : UTF-8
  156. Codec ID                                 : S_TEXT/UTF8
  157. Codec ID/Info                            : UTF-8 Plain Text
  158. Duration                                 : 1 h 26 min
  159. Bit rate                                 : 75 b/s
  160. Count of elements                        : 1429
  161. Stream size                              : 47.4 KiB (0%)
  162. Title                                    : Hungarian
  163. Language                                 : Hungarian
  164. Default                                  : No
  165. Forced                                   : No
  166. Text #10
  167. ID                                       : 12
  168. Format                                   : UTF-8
  169. Codec ID                                 : S_TEXT/UTF8
  170. Codec ID/Info                            : UTF-8 Plain Text
  171. Duration                                 : 1 h 25 min
  172. Bit rate                                 : 71 b/s
  173. Count of elements                        : 1424
  174. Stream size                              : 44.5 KiB (0%)
  175. Title                                    : Norwegian Bokmal
  176. Language                                 : Norwegian Bokmal
  177. Default                                  : No
  178. Forced                                   : No
  179. Text #11
  180. ID                                       : 13
  181. Format                                   : UTF-8
  182. Codec ID                                 : S_TEXT/UTF8
  183. Codec ID/Info                            : UTF-8 Plain Text
  184. Duration                                 : 1 h 26 min
  185. Bit rate                                 : 76 b/s
  186. Count of elements                        : 1414
  187. Stream size                              : 48.7 KiB (0%)
  188. Title                                    : Portuguese
  189. Language                                 : Portuguese
  190. Default                                  : No
  191. Forced                                   : No
  192. Text #12
  193. ID                                       : 14
  194. Format                                   : UTF-8
  195. Codec ID                                 : S_TEXT/UTF8
  196. Codec ID/Info                            : UTF-8 Plain Text
  197. Duration                                 : 1 h 26 min
  198. Bit rate                                 : 72 b/s
  199. Count of elements                        : 1415
  200. Stream size                              : 45.7 KiB (0%)
  201. Title                                    : Romanian
  202. Language                                 : Romanian
  203. Default                                  : No
  204. Forced                                   : No
  205. Text #13
  206. ID                                       : 15
  207. Format                                   : UTF-8
  208. Codec ID                                 : S_TEXT/UTF8
  209. Codec ID/Info                            : UTF-8 Plain Text
  210. Duration                                 : 1 h 26 min
  211. Bit rate                                 : 122 b/s
  212. Count of elements                        : 1427
  213. Stream size                              : 77.5 KiB (0%)
  214. Title                                    : Russian
  215. Language                                 : Russian
  216. Default                                  : No
  217. Forced                                   : No
  218. Text #14
  219. ID                                       : 16
  220. Format                                   : UTF-8
  221. Codec ID                                 : S_TEXT/UTF8
  222. Codec ID/Info                            : UTF-8 Plain Text
  223. Duration                                 : 1 h 26 min
  224. Bit rate                                 : 73 b/s
  225. Count of elements                        : 1395
  226. Stream size                              : 46.2 KiB (0%)
  227. Title                                    : European Spanish
  228. Language                                 : Spanish
  229. Default                                  : No
  230. Forced                                   : No
  231. Text #15
  232. ID                                       : 17
  233. Format                                   : UTF-8
  234. Codec ID                                 : S_TEXT/UTF8
  235. Codec ID/Info                            : UTF-8 Plain Text
  236. Duration                                 : 1 h 26 min
  237. Bit rate                                 : 76 b/s
  238. Count of elements                        : 1428
  239. Stream size                              : 48.4 KiB (0%)
  240. Title                                    : Swedish
  241. Language                                 : Swedish
  242. Default                                  : No
  243. Forced                                   : No
复制代码







                                       
                                       

                                       
                                       
                                       




回复

使用道具 举报

懒得打字嘛,点击右侧快捷回复 【右侧内容,后台自定义】
您需要登录后才可以回帖 登录 | 立即加入

本版积分规则

Archiver|小黑屋| 蓝光电影网 |网站地图

Copyright © 2021 Comsenz Inc. Powered by 蓝光电影网

蓝光电影网

本站内容由用户自主分享和转载自互联网,转载目的在于传递更多信息,并不代表本网赞同其观点和对其真实性负责。

如有侵权、违反国家法律政策行为,请联系我们,我们会第一时间及时清除和处理!

举报反馈邮箱:[email protected]

快速回复 返回顶部 返回列表