找回密码

蓝光电影网

查看: 128|回复: 0

[剧情] 戴夫·艾伦 Dave.Allen.At.Peace.2018.1080p.AMZN.WEBRip.DDP2.0.x264-Spekt0r 2.15GB

[复制链接]
蓝光币
733
发表于 2021-10-28 10:14:07 | 显示全部楼层 |阅读模式


◎译  名 戴夫·艾伦
◎片  名 Dave Allen At Peace
◎年  代 2018
◎产  地 英国
◎类  别 剧情 / 列传 / 历史
◎语  言 英语
◎上映日期 2018-04-02(英国)
◎豆瓣评分 /10 from 0 users
◎豆瓣链接 https://movie.douban.com/subject/27147742/
◎导  演 安迪·德爱蒙伊 Andy De Emmony
◎编  剧 斯蒂芬·拉塞尔 Stephen Russell
◎主  演 艾丹·吉伦 Aidan Gillen
       罗伯特·巴瑟斯特 Robert Bathurst
       西蒙·戴 Simon Day
       帕特里克·菲茨蒙斯 Patrick FitzSymons
       米兰达·亨妮莎 Miranda Hennessy
       康勒斯·希尔 Conleth Hill
       伊恩·麦克尔希尼 Ian McElhinney
       宝琳·麦克林 Pauline McLynn
       朱利安·林希德-图特 Julian Rhind-Tutt
       汤米·蒂尔南 Tommy Tiernan
       福迪亚·瓦尔什-匹罗 Ferdia Walsh-Peelo
        Emma Little
       伊利·索兰 Ely Solan
◎标  签 AidanGillen | 列传 | 英国 | 英剧 | UK\Ireland | TV | Julian_Rhind-Tutt | Comedy
◎简  介


  艾丹·吉伦又接新戏,将在BBC列传题材剧集《戴夫·艾伦》(Dave Allen At Peace,暂译)中饰演爱尔兰笑剧演员戴夫·艾伦。该剧将由斯蒂芬·拉塞尔(《浴血黑帮》)编剧。戴夫·艾伦代表作是1972-1986年BBC播出的《戴夫·艾伦脱口秀》。新剧将聚焦他近40年的演艺生活,包括他若何因信仰备受争议。
  1. Video
  2. ID                                       : 1
  3. Format                                   : AVC
  4. Format/Info                              : Advanced Video Codec
  5. Format profile                           : [email protected]
  6. Format settings                          : CABAC / 4 Ref Frames
  7. Format settings, CABAC                   : Yes
  8. Format settings, Reference frames        : 4 frames
  9. Codec ID                                 : V_MPEG4/ISO/AVC
  10. Duration                                 : 58 min 15 s
  11. Bit rate                                 : 5 056 kb/s
  12. Width                                    : 1 920 pixels
  13. Height                                   : 1 080 pixels
  14. Display aspect ratio                     : 16:9
  15. Frame rate mode                          : Constant
  16. Frame rate                               : 25.000 FPS
  17. Color space                              : YUV
  18. Chroma subsampling                       : 4:2:0
  19. Bit depth                                : 8 bits
  20. Scan type                                : Progressive
  21. Bits/(Pixel*Frame)                       : 0.098
  22. Stream size                              : 2.06 GiB (96%)
  23. Language                                 : English
  24. Default                                  : Yes
  25. Forced                                   : No
  26. Color range                              : Limited
  27. Color primaries                          : BT.709
  28. Transfer characteristics                 : BT.709
  29. Matrix coefficients                      : BT.709
  30. Audio
  31. ID                                       : 2
  32. Format                                   : E-AC-3
  33. Format/Info                              : Enhanced AC-3
  34. Commercial name                          : Dolby Digital Plus
  35. Codec ID                                 : A_EAC3
  36. Duration                                 : 58 min 15 s
  37. Bit rate mode                            : Constant
  38. Bit rate                                 : 224 kb/s
  39. Channel(s)                               : 2 channels
  40. Channel layout                           : L R
  41. Sampling rate                            : 48.0 kHz
  42. Frame rate                               : 31.250 FPS (1536 SPF)
  43. Compression mode                         : Lossy
  44. Delay relative to video                  : -80 ms
  45. Stream size                              : 93.3 MiB (4%)
  46. Language                                 : English
  47. Service kind                             : Complete Main
  48. Default                                  : Yes
  49. Forced                                   : No
  50. Text
  51. ID                                       : 3
  52. Format                                   : UTF-8
  53. Codec ID                                 : S_TEXT/UTF8
  54. Codec ID/Info                            : UTF-8 Plain Text
  55. Duration                                 : 57 min 30 s
  56. Bit rate                                 : 84 b/s
  57. Count of elements                        : 1224
  58. Stream size                              : 35.8 KiB (0%)
  59. Title                                    : CC
  60. Language                                 : English
  61. Default                                  : Yes
  62. Forced                                   : No
复制代码






                                       
                                       

                                       
                                       
                                       




回复

使用道具 举报

懒得打字嘛,点击右侧快捷回复 【右侧内容,后台自定义】
您需要登录后才可以回帖 登录 | 立即加入

本版积分规则

Archiver|小黑屋| 蓝光电影网 |网站地图

Copyright © 2021 Comsenz Inc. Powered by 蓝光电影网

蓝光电影网

本站内容由用户自主分享和转载自互联网,转载目的在于传递更多信息,并不代表本网赞同其观点和对其真实性负责。

如有侵权、违反国家法律政策行为,请联系我们,我们会第一时间及时清除和处理!

举报反馈邮箱:[email protected]

快速回复 返回顶部 返回列表