找回密码

蓝光电影网

查看: 128|回复: 0

[剧情] 在心里/所有的人都无知 In.All.Innocence.1998.FRENCH.1080p.NF.WEBRip.DDP2.0.x264-playWEB 5.28GB

[复制链接]
蓝光币
682
发表于 2021-10-28 10:12:44 | 显示全部楼层 |阅读模式


◎译  名 在心里/一切的人都蒙昧/狂恋爱挑
◎片  名 En plein coeur
◎年  代 1998
◎产  地 法国
◎类  别 剧情 / 恋爱 / 犯罪
◎语  言 法语
◎上映日期 1999-01-09
◎豆瓣评分 6.9/10 from 182 users
◎豆瓣链接 https://movie.douban.com/subject/1297919/
◎片  长 101 分钟
◎导  演 皮埃尔·若利韦 Pierre Jolivet
◎编  剧 乔治·西默农 Georges Simenon / 罗丝·博斯 Rose Bosch
◎主  演 热拉尔·朗万 Gérard Lanvin
       维吉妮·拉朵嫣 Virginie Ledoyen
       卡洛尔·布盖 Carole Bouquet
       吉约姆·卡内 Guillaume Canet
       让-皮耶·罗利特 Jean-Pierre Lorit
       安娜·勒尼 Anne Le Ny
       奥利维耶·富贝尔 Olivier Foubert
       弗朗索瓦·贝莱昂 Fran?ois Berléand
       德尼·波达利德斯 Denis Podalydès
◎标  签 法国 | 法国电影 | 情色 | 恋爱 | VirginieLedoyen | 犯罪 | GuillaumeCanet | CaroleBouquet
◎简  介


  一个落魄的少女,翻开一个求名求利的律师的办公室两个不着边沿的天下,就此撞击在一路。这两个天下步伐分歧、听的音乐分歧、在分歧的时候睡觉、做分歧的梦可是对恋爱的感受,却毫无轩轾。  他们第一次碰头时,这个少女对他说:「这里有铜臭味,你底子不晓得里面的情况。」对於来自陌头、在陌头长大的米榭来说,这句话很是震动。他发现自己完全变了。已婚汉子米榭,过着舒适的中产阶级生活,这一切却在碰见少女赛西儿後,完全被颠覆。这个46岁、奇迹正值顶峰状态的律师,碰见这个来自巴黎郊区的女孩,她和他19岁的时辰如出一辙。就在这一瞬间,他一向在回避他的曩昔,也一向没有成功到能将曩昔抛在脑後。米榭所赌的,不但是少女那双美丽的眼睛。米榭有一个标致的妻子,他身旁并不缺少美色。可是赛西儿闯进他的生命後,对於他所落空的一切,他忽然有了顿悟,她就像遭双亲抛弃的小孩,不竭与社会对抗,却没法操纵社会,她只晓得爱与熬煎,赛西儿既是天使,也是魔鬼。於是他沈溺了,情愿受熬煎.
  1. Video
  2. ID                                       : 1
  3. Format                                   : AVC
  4. Format/Info                              : Advanced Video Codec
  5. Format profile                           : [email protected]
  6. Format settings                          : CABAC / 3 Ref Frames
  7. Format settings, CABAC                   : Yes
  8. Format settings, Reference frames        : 3 frames
  9. Codec ID                                 : V_MPEG4/ISO/AVC
  10. Duration                                 : 1 h 41 min
  11. Bit rate mode                            : Variable
  12. Bit rate                                 : 7 312 kb/s
  13. Nominal bit rate                         : 6 262 kb/s
  14. Maximum bit rate                         : 11.2 Mb/s
  15. Width                                    : 1 920 pixels
  16. Height                                   : 1 080 pixels
  17. Display aspect ratio                     : 16:9
  18. Frame rate mode                          : Constant
  19. Frame rate                               : 24.000 FPS
  20. Color space                              : YUV
  21. Chroma subsampling                       : 4:2:0
  22. Bit depth                                : 8 bits
  23. Scan type                                : Progressive
  24. Bits/(Pixel*Frame)                       : 0.147
  25. Stream size                              : 5.18 GiB (98%)
  26. Writing library                          : x264 core 148 r2724 dbe0335
  27. Encoding settings                        : cabac=1 / ref=3 / deblock=1:0:0 / analyse=0x1:0x111 / me=umh / subme=10 / psy=1 / psy_rd=1.00:0.00 / mixed_ref=1 / me_range=24 / chroma_me=1 / trellis=2 / 8x8dct=0 / cqm=0 / deadzone=21,11 / fast_pskip=1 / chroma_qp_offset=-2 / threads=8 / lookahead_threads=1 / sliced_threads=0 / nr=0 / decimate=1 / interlaced=0 / bluray_compat=0 / stitchable=1 / constrained_intra=0 / bframes=2 / b_pyramid=0 / b_adapt=2 / b_bias=0 / direct=3 / weightb=1 / open_gop=0 / weightp=2 / keyint=250 / keyint_min=24 / scenecut=0 / intra_refresh=0 / rc_lookahead=48 / rc=2pass / mbtree=1 / bitrate=6262 / ratetol=1.0 / qcomp=0.50 / qpmin=6 / qpmax=51 / qpstep=4 / cplxblur=20.0 / qblur=0.5 / vbv_maxrate=11250 / vbv_bufsize=15000 / nal_hrd=vbr / filler=0 / ip_ratio=1.40 / aq=1:1.00
  28. Default                                  : Yes
  29. Forced                                   : No
  30. Audio
  31. ID                                       : 2
  32. Format                                   : E-AC-3
  33. Format/Info                              : Enhanced AC-3
  34. Commercial name                          : Dolby Digital Plus
  35. Codec ID                                 : A_EAC3
  36. Duration                                 : 1 h 41 min
  37. Bit rate mode                            : Constant
  38. Bit rate                                 : 128 kb/s
  39. Channel(s)                               : 2 channels
  40. Channel layout                           : L R
  41. Sampling rate                            : 48.0 kHz
  42. Frame rate                               : 31.250 FPS (1536 SPF)
  43. Compression mode                         : Lossy
  44. Stream size                              : 92.9 MiB (2%)
  45. Title                                    : French
  46. Language                                 : French
  47. Service kind                             : Complete Main
  48. Default                                  : No
  49. Forced                                   : No
  50. Text #1
  51. ID                                       : 3
  52. Format                                   : UTF-8
  53. Codec ID                                 : S_TEXT/UTF8
  54. Codec ID/Info                            : UTF-8 Plain Text
  55. Duration                                 : 1 h 39 min
  56. Bit rate                                 : 51 b/s
  57. Count of elements                        : 1388
  58. Stream size                              : 37.7 KiB (0%)
  59. Title                                    : English
  60. Language                                 : English
  61. Default                                  : No
  62. Forced                                   : No
  63. Text #2
  64. ID                                       : 4
  65. Format                                   : UTF-8
  66. Codec ID                                 : S_TEXT/UTF8
  67. Codec ID/Info                            : UTF-8 Plain Text
  68. Duration                                 : 1 h 36 min
  69. Bit rate                                 : 47 b/s
  70. Count of elements                        : 1384
  71. Stream size                              : 33.3 KiB (0%)
  72. Title                                    : Croatian
  73. Language                                 : Croatian
  74. Default                                  : No
  75. Forced                                   : No
  76. Text #3
  77. ID                                       : 5
  78. Format                                   : UTF-8
  79. Codec ID                                 : S_TEXT/UTF8
  80. Codec ID/Info                            : UTF-8 Plain Text
  81. Duration                                 : 1 h 36 min
  82. Bit rate                                 : 52 b/s
  83. Count of elements                        : 1387
  84. Stream size                              : 37.0 KiB (0%)
  85. Title                                    : Czech
  86. Language                                 : Czech
  87. Default                                  : No
  88. Forced                                   : No
  89. Text #4
  90. ID                                       : 6
  91. Format                                   : UTF-8
  92. Codec ID                                 : S_TEXT/UTF8
  93. Codec ID/Info                            : UTF-8 Plain Text
  94. Duration                                 : 1 h 36 min
  95. Bit rate                                 : 53 b/s
  96. Count of elements                        : 1380
  97. Stream size                              : 37.9 KiB (0%)
  98. Title                                    : Danish
  99. Language                                 : Danish
  100. Default                                  : No
  101. Forced                                   : No
  102. Text #5
  103. ID                                       : 7
  104. Format                                   : UTF-8
  105. Codec ID                                 : S_TEXT/UTF8
  106. Codec ID/Info                            : UTF-8 Plain Text
  107. Duration                                 : 1 h 35 min
  108. Bit rate                                 : 52 b/s
  109. Count of elements                        : 1097
  110. Stream size                              : 36.8 KiB (0%)
  111. Title                                    : Dutch
  112. Language                                 : Dutch
  113. Default                                  : No
  114. Forced                                   : No
  115. Text #6
  116. ID                                       : 8
  117. Format                                   : UTF-8
  118. Codec ID                                 : S_TEXT/UTF8
  119. Codec ID/Info                            : UTF-8 Plain Text
  120. Duration                                 : 1 h 36 min
  121. Bit rate                                 : 48 b/s
  122. Count of elements                        : 1386
  123. Stream size                              : 34.0 KiB (0%)
  124. Title                                    : Finnish
  125. Language                                 : Finnish
  126. Default                                  : No
  127. Forced                                   : No
  128. Text #7
  129. ID                                       : 9
  130. Format                                   : UTF-8
  131. Codec ID                                 : S_TEXT/UTF8
  132. Codec ID/Info                            : UTF-8 Plain Text
  133. Duration                                 : 1 h 36 min
  134. Bit rate                                 : 67 b/s
  135. Count of elements                        : 1498
  136. Stream size                              : 48.0 KiB (0%)
  137. Title                                    : French
  138. Language                                 : French
  139. Default                                  : No
  140. Forced                                   : No
  141. Text #8
  142. ID                                       : 10
  143. Format                                   : UTF-8
  144. Codec ID                                 : S_TEXT/UTF8
  145. Codec ID/Info                            : UTF-8 Plain Text
  146. Duration                                 : 1 h 36 min
  147. Bit rate                                 : 88 b/s
  148. Count of elements                        : 1382
  149. Stream size                              : 62.4 KiB (0%)
  150. Title                                    : Greek
  151. Language                                 : Greek
  152. Default                                  : No
  153. Forced                                   : No
  154. Text #9
  155. ID                                       : 11
  156. Format                                   : UTF-8
  157. Codec ID                                 : S_TEXT/UTF8
  158. Codec ID/Info                            : UTF-8 Plain Text
  159. Duration                                 : 1 h 36 min
  160. Bit rate                                 : 54 b/s
  161. Count of elements                        : 1269
  162. Stream size                              : 38.3 KiB (0%)
  163. Title                                    : Hungarian
  164. Language                                 : Hungarian
  165. Default                                  : No
  166. Forced                                   : No
  167. Text #10
  168. ID                                       : 12
  169. Format                                   : UTF-8
  170. Codec ID                                 : S_TEXT/UTF8
  171. Codec ID/Info                            : UTF-8 Plain Text
  172. Duration                                 : 1 h 36 min
  173. Bit rate                                 : 52 b/s
  174. Count of elements                        : 1383
  175. Stream size                              : 37.5 KiB (0%)
  176. Title                                    : Italian
  177. Language                                 : Italian
  178. Default                                  : No
  179. Forced                                   : No
  180. Text #11
  181. ID                                       : 13
  182. Format                                   : UTF-8
  183. Codec ID                                 : S_TEXT/UTF8
  184. Codec ID/Info                            : UTF-8 Plain Text
  185. Duration                                 : 1 h 36 min
  186. Bit rate                                 : 52 b/s
  187. Count of elements                        : 1159
  188. Stream size                              : 37.3 KiB (0%)
  189. Title                                    : Norwegian Bokmal
  190. Language                                 : Norwegian Bokmal
  191. Default                                  : No
  192. Forced                                   : No
  193. Text #12
  194. ID                                       : 14
  195. Format                                   : UTF-8
  196. Codec ID                                 : S_TEXT/UTF8
  197. Codec ID/Info                            : UTF-8 Plain Text
  198. Duration                                 : 1 h 36 min
  199. Bit rate                                 : 54 b/s
  200. Count of elements                        : 1385
  201. Stream size                              : 38.5 KiB (0%)
  202. Title                                    : Portuguese
  203. Language                                 : Portuguese
  204. Default                                  : No
  205. Forced                                   : No
  206. Text #13
  207. ID                                       : 15
  208. Format                                   : UTF-8
  209. Codec ID                                 : S_TEXT/UTF8
  210. Codec ID/Info                            : UTF-8 Plain Text
  211. Duration                                 : 1 h 36 min
  212. Bit rate                                 : 48 b/s
  213. Count of elements                        : 1148
  214. Stream size                              : 34.3 KiB (0%)
  215. Title                                    : Romanian
  216. Language                                 : Romanian
  217. Default                                  : No
  218. Forced                                   : No
  219. Text #14
  220. ID                                       : 16
  221. Format                                   : UTF-8
  222. Codec ID                                 : S_TEXT/UTF8
  223. Codec ID/Info                            : UTF-8 Plain Text
  224. Duration                                 : 1 h 36 min
  225. Bit rate                                 : 85 b/s
  226. Count of elements                        : 1389
  227. Stream size                              : 60.1 KiB (0%)
  228. Title                                    : Russian
  229. Language                                 : Russian
  230. Default                                  : No
  231. Forced                                   : No
  232. Text #15
  233. ID                                       : 17
  234. Format                                   : UTF-8
  235. Codec ID                                 : S_TEXT/UTF8
  236. Codec ID/Info                            : UTF-8 Plain Text
  237. Duration                                 : 1 h 36 min
  238. Bit rate                                 : 50 b/s
  239. Count of elements                        : 1379
  240. Stream size                              : 36.0 KiB (0%)
  241. Title                                    : European Spanish
  242. Language                                 : Spanish
  243. Default                                  : No
  244. Forced                                   : No
  245. Text #16
  246. ID                                       : 18
  247. Format                                   : UTF-8
  248. Codec ID                                 : S_TEXT/UTF8
  249. Codec ID/Info                            : UTF-8 Plain Text
  250. Duration                                 : 1 h 36 min
  251. Bit rate                                 : 53 b/s
  252. Count of elements                        : 1374
  253. Stream size                              : 37.8 KiB (0%)
  254. Title                                    : Swedish
  255. Language                                 : Swedish
  256. Default                                  : No
  257. Forced                                   : No
复制代码







                                       
                                       

                                       
                                       
                                       




回复

使用道具 举报

懒得打字嘛,点击右侧快捷回复 【右侧内容,后台自定义】
您需要登录后才可以回帖 登录 | 立即加入

本版积分规则

Archiver|小黑屋| 蓝光电影网 |网站地图

Copyright © 2021 Comsenz Inc. Powered by 蓝光电影网

蓝光电影网

本站内容由用户自主分享和转载自互联网,转载目的在于传递更多信息,并不代表本网赞同其观点和对其真实性负责。

如有侵权、违反国家法律政策行为,请联系我们,我们会第一时间及时清除和处理!

举报反馈邮箱:[email protected]

快速回复 返回顶部 返回列表