找回密码

蓝光电影网

查看: 626|回复: 7

[10bit.HDR] 黑夜传说4:觉醒 Underworld.Awakening.2012.2160p.UHD.BluRay.x265.10bit.HDR.DTS-HD.MA.TrueHD.7.1.Atmos-SWTYBLZ 12.47GB

[复制链接]
蓝光币
733
发表于 2021-10-28 11:46:17 | 显示全部楼层 |阅读模式


◎译  名 黑夜传闻4:醒觉/Underworld 4: New Dawn/决战异天下:未来苏醒3D(台)/妖夜寻狼:血姬醒觉(港)
◎片  名 Underworld: Awakening
◎年  代 2012
◎产  地 美国
◎类  别 行动 / 惊悚 / 奇异
◎语  言 英语
◎上映日期 2012-01-20(美国)
◎豆瓣评分 6.7/10 from 48476 users
◎豆瓣链接 https://movie.douban.com/subject/3990098/
◎片  长 88分钟
◎导  演 曼斯·马林德 M?ns M?rlind / 比约恩·史坦 Bj?rn Stein
◎编  剧 伦·怀斯曼 Len Wiseman / J·迈克尔·斯特拉辛斯基 J. Michael Straczynski
◎主  演 凯特·贝金赛尔 Kate Beckinsale
       英迪娅·埃斯利 India Eisley
       迈克尔·伊雷 Michael Ealy
       克里斯·霍尔登-里德 Kris Holden-Ried
       何家蓓 Sandrine Holt
       理查德·赛特伦 Richard Cetrone
       罗伯特·劳兰逊 Robert Lawrenson
       西奥·詹姆斯 Theo James
       查尔斯·丹斯 Charles Dance
◎标  签 吸血鬼 | 狼人 | 美国 | 行动 | 魔幻 | 科幻 | 2012 | 奇异
◎简  介


  终究有一天,人类向日渐增加的血族和狼族宣战,这两个族群遭到大举围歼与屠杀,人类获得绝对的上风。塞琳娜(凯特·贝金赛尔 Kate Beckinsale 饰)和约翰也在这场浩劫中遭难,当她再次醒来时,却发现自己被名为抗原研讨所的机构软禁起来,编号尝试品1号。她奋力冲破了约束,按照共视的才能在黑暗的都会中寻觅尝试品2号——约翰。途中她遭受血族的同伴互助以及狼人的攻击,当她找到被狼人们追逐的尝试品2号时却发现,眼前竟是一个从没见过面但有着极为可骇气力的小女孩——伊薇(英迪娅·埃斯利 India Eisley 饰),而她是血族与狼族的混血儿。
  
  在这个陌生的时代,塞琳娜必定继续过着血雨腥风的生活……

  1. Video
  2. ID : 1
  3. Format : HEVC
  4. Format/Info : High Efficiency Video Coding
  5. Format profile : Main [email protected]@High
  6. HDR format : SMPTE ST 2086, HDR10 compatible
  7. Codec ID : V_MPEGH/ISO/HEVC
  8. Duration : 1 h 28 min
  9. Bit rate : 11.1 Mb/s
  10. Width : 3 840 pixels
  11. Height : 1 606 pixels
  12. Display aspect ratio : 2.40:1
  13. Frame rate mode : Constant
  14. Frame rate : 23.976 (24000/1001) FPS
  15. Color space : YUV
  16. Chroma subsampling : 4:2:0 (Type 2)
  17. Bit depth : 10 bits
  18. Bits/(Pixel*Frame) : 0.075
  19. Stream size : 6.89 GiB (56%)
  20. Writing library : x265 3.0_Au+10-74a8672ea4f7:[Windows][GCC 8.2.1][64 bit] 10bit
  21. Encoding settings : cpuid=1111039 / frame-threads=6 / numa-pools=40 / wpp / no-pmode / no-pme / no-psnr / no-ssim / log-level=2 / input-csp=1 / input-res=3840x1606 / interlace=0 / total-frames=0 / level-idc=51 / high-tier=1 / uhd-bd=0 / ref=3 / no-allow-non-conformance / repeat-headers / annexb / aud / hrd / info / hash=0 / no-temporal-layers / no-open-gop / min-keyint=1 / keyint=24 / gop-lookahead=0 / bframes=4 / b-adapt=2 / b-pyramid / bframe-bias=0 / rc-lookahead=25 / lookahead-slices=4 / scenecut=40 / radl=0 / no-splice / no-intra-refresh / ctu=64 / min-cu-size=8 / no-rect / no-amp / max-tu-size=32 / tu-inter-depth=1 / tu-intra-depth=1 / limit-tu=0 / rdoq-level=0 / dynamic-rd=0.00 / no-ssim-rd / signhide / no-tskip / nr-intra=0 / nr-inter=0 / no-constrained-intra / strong-intra-smoothing / max-merge=2 / limit-refs=3 / no-limit-modes / me=1 / subme=2 / merange=57 / temporal-mvp / weightp / no-weightb / no-analyze-src-pics / deblock=0:0 / no-sao / no-sao-non-deblock / rd=3 / no-early-skip / rskip / no-fast-intra / no-tskip-fast / no-cu-lossless / no-b-intra / no-splitrd-skip / rdpenalty=0 / psy-rd=2.00 / psy-rdoq=0.00 / no-rd-refine / no-lossless / cbqpoffs=0 / crqpoffs=0 / rc=crf / crf=16.0 / qcomp=0.60 / qpstep=4 / stats-write=0 / stats-read=0 / vbv-maxrate=160000 / vbv-bufsize=160000 / vbv-init=0.9 / crf-max=0.0 / crf-min=0.0 / ipratio=1.40 / pbratio=1.30 / aq-mode=1 / aq-strength=1.00 / cutree / zone-count=0 / no-strict-cbr / qg-size=32 / no-rc-grain / qpmax=69 / qpmin=0 / no-const-vbv / sar=1 / overscan=0 / videoformat=5 / range=0 / colorprim=9 / transfer=16 / colormatrix=9 / chromaloc=1 / chromaloc-top=2 / chromaloc-bottom=2 / display-window=0 / master-display=G(8500,39850)B(6550,2300)R(35400,14600)WP(15635,16450)L(10000000,01) / max-cll=804,324 / min-luma=0 / max-luma=1023 / log2-max-poc-lsb=8 / vui-timing-info / vui-hrd-info / slices=1 / opt-qp-pps / opt-ref-list-length-pps / no-multi-pass-opt-rps / scenecut-bias=0.05 / no-opt-cu-delta-qp / no-aq-motion / hdr / hdr-opt / no-dhdr10-opt / no-idr-recovery-sei / analysis-reuse-level=5 / scale-factor=0 / refine-intra=0 / refine-inter=0 / refine-mv=0 / refine-ctu-distortion=0 / no-limit-sao / ctu-info=0 / no-lowpass-dct / refine-analysis-type=160 / copy-pic=1 / max-ausize-factor=1.0 / no-dynamic-refine / no-single-sei / no-hevc-aq / no-svt / qp-adaptation-range=1.00
  22. Default : Yes
  23. Forced : No
  24. Color range : Limited
  25. Color primaries : BT.2020
  26. Transfer characteristics : PQ
  27. Matrix coefficients : BT.2020 non-constant
  28. Mastering display color primaries : BT.2020
  29. Mastering display luminance : min: 0.0001 cd/m2, max: 1000 cd/m2
  30. Maximum Content Light Level : 804 cd/m2
  31. Maximum Frame-Average Light Level : 324 cd/m2

  32. Audio #1
  33. ID : 2
  34. ID in the original source medium : 4352 (0x1100)
  35. Format : MLP FBA 16-ch
  36. Format/Info : Meridian Lossless Packing FBA with 16-channel presentation
  37. Commercial name : Dolby TrueHD with Dolby Atmos
  38. Codec ID : A_TRUEHD
  39. Duration : 1 h 28 min
  40. Bit rate mode : Variable
  41. Bit rate : 5 020 kb/s
  42. Maximum bit rate : 8 295 kb/s
  43. Channel(s) : 8 channels
  44. Channel layout : L R C LFE Ls Rs Lb Rb
  45. Sampling rate : 48.0 kHz
  46. Frame rate : 1 200.000 FPS (40 SPF)
  47. Bit depth : 24 bits
  48. Compression mode : Lossless
  49. Stream size : 3.10 GiB (25%)
  50. Title : TrueHD 7.1 Atmos
  51. Language : English
  52. Default : Yes
  53. Forced : No
  54. Original source medium : Blu-ray
  55. Number of dynamic objects : 11
  56. Bed channel count : 1 channel
  57. Bed channel configuration : LFE

  58. Audio #2
  59. ID : 3
  60. ID in the original source medium : 4353 (0x1101)
  61. Format : DTS XLL
  62. Format/Info : Digital Theater Systems
  63. Commercial name : DTS-HD Master Audio
  64. Codec ID : A_DTS
  65. Duration : 1 h 28 min
  66. Bit rate mode : Variable
  67. Bit rate : 2 939 kb/s
  68. Channel(s) : 8 channels
  69. Channel layout : C L R LFE Lb Rb Lss Rss
  70. Sampling rate : 48.0 kHz
  71. Frame rate : 93.750 FPS (512 SPF)
  72. Bit depth : 16 bits
  73. Compression mode : Lossless
  74. Stream size : 1.82 GiB (15%)
  75. Title : DTS-HD MA 7.1
  76. Language : English
  77. Default : No
  78. Forced : No
  79. Original source medium : Blu-ray

  80. Audio #3
  81. ID : 4
  82. ID in the original source medium : 4352 (0x1100)
  83. Format : AC-3
  84. Format/Info : Audio Coding 3
  85. Commercial name : Dolby Digital
  86. Codec ID : A_AC3
  87. Duration : 1 h 28 min
  88. Bit rate mode : Constant
  89. Bit rate : 640 kb/s
  90. Channel(s) : 6 channels
  91. Channel layout : L R C LFE Ls Rs
  92. Sampling rate : 48.0 kHz
  93. Frame rate : 31.250 FPS (1536 SPF)
  94. Compression mode : Lossy
  95. Stream size : 405 MiB (3%)
  96. Title : DD 5.1
  97. Language : English
  98. Service kind : Complete Main
  99. Default : No
  100. Forced : No
  101. Original source medium : Blu-ray

  102. Text #1
  103. ID : 5
  104. Format : UTF-8
  105. Codec ID : S_TEXT/UTF8
  106. Codec ID/Info : UTF-8 Plain Text
  107. Duration : 1 h 17 min
  108. Bit rate : 34 b/s
  109. Count of elements : 691
  110. Stream size : 19.5 KiB (0%)
  111. Title : SRT
  112. Language : English
  113. Default : Yes
  114. Forced : No

  115. Text #2
  116. ID : 6
  117. ID in the original source medium : 4768 (0x12A0)
  118. Format : PGS
  119. Muxing mode : zlib
  120. Codec ID : S_HDMV/PGS
  121. Codec ID/Info : Picture based subtitle format used on BDs/HD-DVDs
  122. Duration : 1 h 21 min
  123. Bit rate : 24.5 kb/s
  124. Count of elements : 1704
  125. Stream size : 14.3 MiB (0%)
  126. Title : SDH
  127. Language : English
  128. Default : No
  129. Forced : No
  130. Original source medium : Blu-ray

  131. Text #3
  132. ID : 7
  133. ID in the original source medium : 4769 (0x12A1)
  134. Format : PGS
  135. Muxing mode : zlib
  136. Codec ID : S_HDMV/PGS
  137. Codec ID/Info : Picture based subtitle format used on BDs/HD-DVDs
  138. Duration : 1 h 17 min
  139. Bit rate : 20.5 kb/s
  140. Count of elements : 1445
  141. Stream size : 11.4 MiB (0%)
  142. Language : English
  143. Default : No
  144. Forced : No
  145. Original source medium : Blu-ray

  146. Text #4
  147. ID : 8
  148. ID in the original source medium : 4770 (0x12A2)
  149. Format : PGS
  150. Muxing mode : zlib
  151. Codec ID : S_HDMV/PGS
  152. Codec ID/Info : Picture based subtitle format used on BDs/HD-DVDs
  153. Duration : 1 h 21 min
  154. Bit rate : 24.5 kb/s
  155. Count of elements : 1704
  156. Stream size : 14.3 MiB (0%)
  157. Title : SDH
  158. Language : English
  159. Default : No
  160. Forced : No
  161. Original source medium : Blu-ray

  162. Text #5
  163. ID : 9
  164. ID in the original source medium : 4771 (0x12A3)
  165. Format : PGS
  166. Muxing mode : zlib
  167. Codec ID : S_HDMV/PGS
  168. Codec ID/Info : Picture based subtitle format used on BDs/HD-DVDs
  169. Duration : 1 h 17 min
  170. Bit rate : 20.5 kb/s
  171. Count of elements : 1454
  172. Stream size : 11.4 MiB (0%)
  173. Language : English
  174. Default : No
  175. Forced : No
  176. Original source medium : Blu-ray

  177. Text #6
  178. ID : 10
  179. ID in the original source medium : 4772 (0x12A4)
  180. Format : PGS
  181. Muxing mode : zlib
  182. Codec ID : S_HDMV/PGS
  183. Codec ID/Info : Picture based subtitle format used on BDs/HD-DVDs
  184. Duration : 1 h 17 min
  185. Bit rate : 10.6 kb/s
  186. Count of elements : 1475
  187. Stream size : 5.87 MiB (0%)
  188. Language : Arabic
  189. Default : No
  190. Forced : No
  191. Original source medium : Blu-ray

  192. Text #7
  193. ID : 11
  194. ID in the original source medium : 4773 (0x12A5)
  195. Format : PGS
  196. Muxing mode : zlib
  197. Codec ID : S_HDMV/PGS
  198. Codec ID/Info : Picture based subtitle format used on BDs/HD-DVDs
  199. Duration : 1 h 27 min
  200. Bit rate : 16.6 kb/s
  201. Count of elements : 1453
  202. Stream size : 10.4 MiB (0%)
  203. Language : Chinese
  204. Default : No
  205. Forced : No
  206. Original source medium : Blu-ray

  207. Text #8
  208. ID : 12
  209. ID in the original source medium : 4774 (0x12A6)
  210. Format : PGS
  211. Muxing mode : zlib
  212. Codec ID : S_HDMV/PGS
  213. Codec ID/Info : Picture based subtitle format used on BDs/HD-DVDs
  214. Duration : 1 h 17 min
  215. Bit rate : 19.0 kb/s
  216. Count of elements : 1459
  217. Stream size : 10.6 MiB (0%)
  218. Language : Chinese
  219. Default : No
  220. Forced : No
  221. Original source medium : Blu-ray

  222. Text #9
  223. ID : 13
  224. ID in the original source medium : 4775 (0x12A7)
  225. Format : PGS
  226. Muxing mode : zlib
  227. Codec ID : S_HDMV/PGS
  228. Codec ID/Info : Picture based subtitle format used on BDs/HD-DVDs
  229. Duration : 1 h 17 min
  230. Bit rate : 17.9 kb/s
  231. Count of elements : 1451
  232. Stream size : 9.93 MiB (0%)
  233. Language : Czech
  234. Default : No
  235. Forced : No
  236. Original source medium : Blu-ray

  237. Text #10
  238. ID : 14
  239. ID in the original source medium : 4776 (0x12A8)
  240. Format : PGS
  241. Muxing mode : zlib
  242. Codec ID : S_HDMV/PGS
  243. Codec ID/Info : Picture based subtitle format used on BDs/HD-DVDs
  244. Duration : 1 h 27 min
  245. Bit rate : 17.0 kb/s
  246. Count of elements : 1268
  247. Stream size : 10.7 MiB (0%)
  248. Language : Danish
  249. Default : No
  250. Forced : No
  251. Original source medium : Blu-ray

  252. Text #11
  253. ID : 15
  254. ID in the original source medium : 4777 (0x12A9)
  255. Format : PGS
  256. Muxing mode : zlib
  257. Codec ID : S_HDMV/PGS
  258. Codec ID/Info : Picture based subtitle format used on BDs/HD-DVDs
  259. Duration : 1 h 27 min
  260. Bit rate : 15.9 kb/s
  261. Count of elements : 1457
  262. Stream size : 9.97 MiB (0%)
  263. Language : Dutch
  264. Default : No
  265. Forced : No
  266. Original source medium : Blu-ray

  267. Text #12
  268. ID : 16
  269. ID in the original source medium : 4778 (0x12AA)
  270. Format : PGS
  271. Muxing mode : zlib
  272. Codec ID : S_HDMV/PGS
  273. Codec ID/Info : Picture based subtitle format used on BDs/HD-DVDs
  274. Duration : 1 h 17 min
  275. Bit rate : 20.0 kb/s
  276. Count of elements : 1465
  277. Stream size : 11.1 MiB (0%)
  278. Language : Estonian
  279. Default : No
  280. Forced : No
  281. Original source medium : Blu-ray

  282. Text #13
  283. ID : 17
  284. ID in the original source medium : 4779 (0x12AB)
  285. Format : PGS
  286. Muxing mode : zlib
  287. Codec ID : S_HDMV/PGS
  288. Codec ID/Info : Picture based subtitle format used on BDs/HD-DVDs
  289. Duration : 1 h 27 min
  290. Bit rate : 19.4 kb/s
  291. Count of elements : 1482
  292. Stream size : 12.2 MiB (0%)
  293. Language : Finnish
  294. Default : No
  295. Forced : No
  296. Original source medium : Blu-ray

  297. Text #14
  298. ID : 18
  299. ID in the original source medium : 4780 (0x12AC)
  300. Format : PGS
  301. Muxing mode : zlib
  302. Codec ID : S_HDMV/PGS
  303. Codec ID/Info : Picture based subtitle format used on BDs/HD-DVDs
  304. Duration : 1 h 27 min
  305. Bit rate : 13.7 kb/s
  306. Count of elements : 1444
  307. Stream size : 8.59 MiB (0%)
  308. Language : French
  309. Default : No
  310. Forced : No
  311. Original source medium : Blu-ray

  312. Text #15
  313. ID : 19
  314. ID in the original source medium : 4780 (0x12AC)
  315. Format : PGS
  316. Muxing mode : zlib
  317. Codec ID : S_HDMV/PGS
  318. Codec ID/Info : Picture based subtitle format used on BDs/HD-DVDs
  319. Duration : 1 h 19 min
  320. Bit rate : 258 b/s
  321. Count of elements : 22
  322. Stream size : 151 KiB (0%)
  323. Language : French
  324. Default : No
  325. Forced : No
  326. Original source medium : Blu-ray

  327. Text #16
  328. ID : 20
  329. ID in the original source medium : 4781 (0x12AD)
  330. Format : PGS
  331. Muxing mode : zlib
  332. Codec ID : S_HDMV/PGS
  333. Codec ID/Info : Picture based subtitle format used on BDs/HD-DVDs
  334. Duration : 1 h 27 min
  335. Bit rate : 18.8 kb/s
  336. Count of elements : 1474
  337. Stream size : 11.8 MiB (0%)
  338. Language : German
  339. Default : No
  340. Forced : No
  341. Original source medium : Blu-ray

  342. Text #17
  343. ID : 21
  344. ID in the original source medium : 4781 (0x12AD)
  345. Format : PGS
  346. Muxing mode : zlib
  347. Codec ID : S_HDMV/PGS
  348. Codec ID/Info : Picture based subtitle format used on BDs/HD-DVDs
  349. Duration : 1 h 14 min
  350. Bit rate : 369 b/s
  351. Count of elements : 16
  352. Stream size : 202 KiB (0%)
  353. Language : German
  354. Default : No
  355. Forced : No
  356. Original source medium : Blu-ray

  357. Text #18
  358. ID : 22
  359. ID in the original source medium : 4782 (0x12AE)
  360. Format : PGS
  361. Muxing mode : zlib
  362. Codec ID : S_HDMV/PGS
  363. Codec ID/Info : Picture based subtitle format used on BDs/HD-DVDs
  364. Duration : 1 h 27 min
  365. Bit rate : 15.2 kb/s
  366. Count of elements : 1490
  367. Stream size : 9.53 MiB (0%)
  368. Language : Hindi
  369. Default : No
  370. Forced : No
  371. Original source medium : Blu-ray

  372. Text #19
  373. ID : 23
  374. ID in the original source medium : 4783 (0x12AF)
  375. Format : PGS
  376. Muxing mode : zlib
  377. Codec ID : S_HDMV/PGS
  378. Codec ID/Info : Picture based subtitle format used on BDs/HD-DVDs
  379. Duration : 1 h 27 min
  380. Bit rate : 17.9 kb/s
  381. Count of elements : 1482
  382. Stream size : 11.3 MiB (0%)
  383. Language : Hungarian
  384. Default : No
  385. Forced : No
  386. Original source medium : Blu-ray

  387. Text #20
  388. ID : 24
  389. ID in the original source medium : 4784 (0x12B0)
  390. Format : PGS
  391. Muxing mode : zlib
  392. Codec ID : S_HDMV/PGS
  393. Codec ID/Info : Picture based subtitle format used on BDs/HD-DVDs
  394. Duration : 1 h 27 min
  395. Bit rate : 20.2 kb/s
  396. Count of elements : 1465
  397. Stream size : 12.7 MiB (0%)
  398. Language : Italian
  399. Default : No
  400. Forced : No
  401. Original source medium : Blu-ray

  402. Text #21
  403. ID : 25
  404. ID in the original source medium : 4784 (0x12B0)
  405. Format : PGS
  406. Muxing mode : zlib
  407. Codec ID : S_HDMV/PGS
  408. Codec ID/Info : Picture based subtitle format used on BDs/HD-DVDs
  409. Duration : 56 min 27 s
  410. Bit rate : 280 b/s
  411. Count of elements : 14
  412. Stream size : 116 KiB (0%)
  413. Language : Italian
  414. Default : No
  415. Forced : No
  416. Original source medium : Blu-ray

  417. Text #22
  418. ID : 26
  419. ID in the original source medium : 4785 (0x12B1)
  420. Format : PGS
  421. Muxing mode : zlib
  422. Codec ID : S_HDMV/PGS
  423. Codec ID/Info : Picture based subtitle format used on BDs/HD-DVDs
  424. Duration : 1 h 27 min
  425. Bit rate : 13.6 kb/s
  426. Count of elements : 1164
  427. Stream size : 8.49 MiB (0%)
  428. Language : Japanese
  429. Default : No
  430. Forced : No
  431. Original source medium : Blu-ray

  432. Text #23
  433. ID : 27
  434. ID in the original source medium : 4786 (0x12B2)
  435. Format : PGS
  436. Muxing mode : zlib
  437. Codec ID : S_HDMV/PGS
  438. Codec ID/Info : Picture based subtitle format used on BDs/HD-DVDs
  439. Duration : 1 h 27 min
  440. Bit rate : 11.0 kb/s
  441. Count of elements : 1417
  442. Stream size : 6.93 MiB (0%)
  443. Language : Korean
  444. Default : No
  445. Forced : No
  446. Original source medium : Blu-ray

  447. Text #24
  448. ID : 28
  449. ID in the original source medium : 4787 (0x12B3)
  450. Format : PGS
  451. Muxing mode : zlib
  452. Codec ID : S_HDMV/PGS
  453. Codec ID/Info : Picture based subtitle format used on BDs/HD-DVDs
  454. Duration : 1 h 17 min
  455. Bit rate : 20.5 kb/s
  456. Count of elements : 1487
  457. Stream size : 11.4 MiB (0%)
  458. Language : Lithuanian
  459. Default : No
  460. Forced : No
  461. Original source medium : Blu-ray

  462. Text #25
  463. ID : 29
  464. ID in the original source medium : 4788 (0x12B4)
  465. Format : PGS
  466. Muxing mode : zlib
  467. Codec ID : S_HDMV/PGS
  468. Codec ID/Info : Picture based subtitle format used on BDs/HD-DVDs
  469. Duration : 1 h 27 min
  470. Bit rate : 16.6 kb/s
  471. Count of elements : 1347
  472. Stream size : 10.4 MiB (0%)
  473. Language : Norwegian
  474. Default : No
  475. Forced : No
  476. Original source medium : Blu-ray

  477. Text #26
  478. ID : 30
  479. ID in the original source medium : 4789 (0x12B5)
  480. Format : PGS
  481. Muxing mode : zlib
  482. Codec ID : S_HDMV/PGS
  483. Codec ID/Info : Picture based subtitle format used on BDs/HD-DVDs
  484. Duration : 1 h 17 min
  485. Bit rate : 17.3 kb/s
  486. Count of elements : 1379
  487. Stream size : 9.64 MiB (0%)
  488. Language : Polish
  489. Default : No
  490. Forced : No
  491. Original source medium : Blu-ray

  492. Text #27
  493. ID : 31
  494. ID in the original source medium : 4790 (0x12B6)
  495. Format : PGS
  496. Muxing mode : zlib
  497. Codec ID : S_HDMV/PGS
  498. Codec ID/Info : Picture based subtitle format used on BDs/HD-DVDs
  499. Duration : 1 h 27 min
  500. Bit rate : 18.4 kb/s
  501. Count of elements : 1463
  502. Stream size : 11.6 MiB (0%)
  503. Language : Romanian
  504. Default : No
  505. Forced : No
  506. Original source medium : Blu-ray

  507. Text #28
  508. ID : 32
  509. ID in the original source medium : 4791 (0x12B7)
  510. Format : PGS
  511. Muxing mode : zlib
  512. Codec ID : S_HDMV/PGS
  513. Codec ID/Info : Picture based subtitle format used on BDs/HD-DVDs
  514. Duration : 1 h 19 min
  515. Bit rate : 19.3 kb/s
  516. Count of elements : 1469
  517. Stream size : 10.9 MiB (0%)
  518. Language : Russian
  519. Default : No
  520. Forced : No
  521. Original source medium : Blu-ray

  522. Text #29
  523. ID : 33
  524. ID in the original source medium : 4792 (0x12B8)
  525. Format : PGS
  526. Muxing mode : zlib
  527. Codec ID : S_HDMV/PGS
  528. Codec ID/Info : Picture based subtitle format used on BDs/HD-DVDs
  529. Duration : 1 h 27 min
  530. Bit rate : 17.0 kb/s
  531. Count of elements : 1480
  532. Stream size : 10.7 MiB (0%)
  533. Language : Slovak
  534. Default : No
  535. Forced : No
  536. Original source medium : Blu-ray

  537. Text #30
  538. ID : 34
  539. ID in the original source medium : 4793 (0x12B9)
  540. Format : PGS
  541. Muxing mode : zlib
  542. Codec ID : S_HDMV/PGS
  543. Codec ID/Info : Picture based subtitle format used on BDs/HD-DVDs
  544. Duration : 1 h 27 min
  545. Bit rate : 16.0 kb/s
  546. Count of elements : 1394
  547. Stream size : 10.1 MiB (0%)
  548. Language : Spanish
  549. Default : No
  550. Forced : No
  551. Original source medium : Blu-ray

  552. Text #31
  553. ID : 35
  554. ID in the original source medium : 4793 (0x12B9)
  555. Format : PGS
  556. Muxing mode : zlib
  557. Codec ID : S_HDMV/PGS
  558. Codec ID/Info : Picture based subtitle format used on BDs/HD-DVDs
  559. Duration : 56 min 27 s
  560. Bit rate : 240 b/s
  561. Count of elements : 14
  562. Stream size : 99.5 KiB (0%)
  563. Language : Spanish
  564. Default : No
  565. Forced : No
  566. Original source medium : Blu-ray

  567. Text #32
  568. ID : 36
  569. ID in the original source medium : 4794 (0x12BA)
  570. Format : PGS
  571. Muxing mode : zlib
  572. Codec ID : S_HDMV/PGS
  573. Codec ID/Info : Picture based subtitle format used on BDs/HD-DVDs
  574. Duration : 1 h 27 min
  575. Bit rate : 17.7 kb/s
  576. Count of elements : 1437
  577. Stream size : 11.1 MiB (0%)
  578. Language : Spanish
  579. Default : No
  580. Forced : No
  581. Original source medium : Blu-ray

  582. Text #33
  583. ID : 37
  584. ID in the original source medium : 4794 (0x12BA)
  585. Format : PGS
  586. Muxing mode : zlib
  587. Codec ID : S_HDMV/PGS
  588. Codec ID/Info : Picture based subtitle format used on BDs/HD-DVDs
  589. Duration : 56 min 27 s
  590. Bit rate : 265 b/s
  591. Count of elements : 14
  592. Stream size : 110 KiB (0%)
  593. Language : Spanish
  594. Default : No
  595. Forced : No
  596. Original source medium : Blu-ray

  597. Text #34
  598. ID : 38
  599. ID in the original source medium : 4795 (0x12BB)
  600. Format : PGS
  601. Muxing mode : zlib
  602. Codec ID : S_HDMV/PGS
  603. Codec ID/Info : Picture based subtitle format used on BDs/HD-DVDs
  604. Duration : 1 h 27 min
  605. Bit rate : 14.7 kb/s
  606. Count of elements : 1362
  607. Stream size : 9.22 MiB (0%)
  608. Language : Swedish
  609. Default : No
  610. Forced : No
  611. Original source medium : Blu-ray

  612. Text #35
  613. ID : 39
  614. ID in the original source medium : 4796 (0x12BC)
  615. Format : PGS
  616. Muxing mode : zlib
  617. Codec ID : S_HDMV/PGS
  618. Codec ID/Info : Picture based subtitle format used on BDs/HD-DVDs
  619. Duration : 1 h 27 min
  620. Bit rate : 17.0 kb/s
  621. Count of elements : 1448
  622. Stream size : 10.7 MiB (0%)
  623. Language : Thai
  624. Default : No
  625. Forced : No
  626. Original source medium : Blu-ray

  627. Text #36
  628. ID : 40
  629. ID in the original source medium : 4797 (0x12BD)
  630. Format : PGS
  631. Muxing mode : zlib
  632. Codec ID : S_HDMV/PGS
  633. Codec ID/Info : Picture based subtitle format used on BDs/HD-DVDs
  634. Duration : 1 h 17 min
  635. Bit rate : 19.7 kb/s
  636. Count of elements : 1436
  637. Stream size : 11.0 MiB (0%)
  638. Language : Turkish
  639. Default : No
  640. Forced : No
  641. Original source medium : Blu-ray

  642. Text #37
  643. ID : 41
  644. ID in the original source medium : 4798 (0x12BE)
  645. Format : PGS
  646. Muxing mode : zlib
  647. Codec ID : S_HDMV/PGS
  648. Codec ID/Info : Picture based subtitle format used on BDs/HD-DVDs
  649. Duration : 57 min 35 s
  650. Bit rate : 399 b/s
  651. Count of elements : 20
  652. Stream size : 168 KiB (0%)
  653. Language : French
  654. Default : No
  655. Forced : No
  656. Original source medium : Blu-ray

  657. Menu
  658. 00:00:00.000 : en:Chapter 01
  659. 00:04:25.056 : en:Chapter 02
  660. 00:08:03.399 : en:Chapter 03
  661. 00:16:19.103 : en:Chapter 04
  662. 00:21:17.234 : en:Chapter 05
  663. 00:24:48.695 : en:Chapter 06
  664. 00:30:28.785 : en:Chapter 07
  665. 00:35:32.505 : en:Chapter 08
  666. 00:40:03.943 : en:Chapter 09
  667. 00:45:25.889 : en:Chapter 10
  668. 00:52:41.116 : en:Chapter 11
  669. 00:57:20.437 : en:Chapter 12
  670. 01:02:52.935 : en:Chapter 13
  671. 01:07:42.725 : en:Chapter 14
  672. 01:12:17.499 : en:Chapter 15
  673. 01:16:40.220 : en:Chapter 16
复制代码










                                       
                                       

                                       
                                       
                                       





回复

使用道具 举报

蓝光币
87
发表于 2021-10-28 15:08:48 | 显示全部楼层
本帖最后由 tomtomnet 于 2021-10-28 15:17 编辑

黑夜传说4:觉醒 12.47G
Bit rate                                 : 11.1 Mb/s
Stream size                              : 6.89 GiB (56%)
这码率好低哟
回复 支持 反对

使用道具 举报

蓝光币
1
发表于 2021-10-28 20:21:32 | 显示全部楼层
这电影真棒
回复 支持 反对

使用道具 举报

蓝光币
296
发表于 2021-10-28 22:20:15 | 显示全部楼层

楼主太厉害了!楼主,电影应该很好看我觉得蓝光电影网真是个好地方!
回复 支持 反对

使用道具 举报

蓝光币
26
发表于 2021-10-28 23:49:47 | 显示全部楼层
最好看的吸血鬼
回复 支持 反对

使用道具 举报

蓝光币
82
发表于 2021-10-29 01:32:36 | 显示全部楼层

楼主,大恩不言谢了!蓝光电影网是最棒的!
回复 支持 反对

使用道具 举报

蓝光币
82
发表于 2021-10-29 01:33:40 | 显示全部楼层

既然你诚信诚意的推荐了,那我就勉为其难的看看吧!蓝光电影网不走平凡路。
回复 支持 反对

使用道具 举报

蓝光币
3161
发表于 2021-10-29 12:53:24 | 显示全部楼层

其实我一直觉得楼主的品味不错!呵呵!蓝光电影网太棒了!
回复 支持 反对

使用道具 举报

懒得打字嘛,点击右侧快捷回复 【右侧内容,后台自定义】
您需要登录后才可以回帖 登录 | 立即加入

本版积分规则

Archiver|小黑屋| 蓝光电影网 |网站地图

Copyright © 2021 Comsenz Inc. Powered by 蓝光电影网

蓝光电影网

本站内容由用户自主分享和转载自互联网,转载目的在于传递更多信息,并不代表本网赞同其观点和对其真实性负责。

如有侵权、违反国家法律政策行为,请联系我们,我们会第一时间及时清除和处理!

举报反馈邮箱:[email protected]

快速回复 返回顶部 返回列表