找回密码

蓝光电影网

查看: 190|回复: 0

[剧情] 葡萄牙假期 Vacances.portugaises.1963.FRENCH.1080p.NF.WEBRip.DDP2.0.x264-playWEB 5.15GB

[复制链接]
蓝光币
730
发表于 2021-10-28 12:40:15 | 显示全部楼层 |阅读模式


◎译  名 葡萄牙假期
◎片  名 Vacances portugaises
◎年  代 1963
◎产  地 法国,葡萄牙
◎类  别 剧情
◎语  言 法语
◎上映日期 1963-10-09(法国)
◎豆瓣评分 /10 from 0 users
◎豆瓣链接 https://movie.douban.com/subject/3004388/
◎片  长 97 分钟
◎导  演 皮埃尔·卡斯特 Pierre Kast
◎编  剧 皮埃尔·卡斯特 Pierre Kast / 雅克·多尼奥-瓦克罗兹 Jacques Doniol-Valcroze
◎主  演 凯瑟琳·德纳芙 Catherine Deneuve
       弗朗索瓦·阿努尔 Fran?oise Arnoul
       丹尼尔·盖林 Daniel Gélin
       伯恩哈德·维基 Bernhard Wicki
       弗朗索瓦丝·佩武 Fran?oise Prévost
       芭芭拉勒琪 Barbara Laage
       米歇尔·希哈董 Michèle Girardon
       弗朗索瓦·布里昂 Fran?oise Brion
       雅克·多尼奥-瓦克罗兹 Jacques Doniol-Valcroze
       让-马克·伯里 Jean-Marc Bory
       让-皮埃尔·奥蒙特 Jean-Pierre Aumont
       埃德沃德·莫利纳罗 Edouard Molinaro
       罗杰·哈宁 Roger Hanin
       米歇尔·奥克莱尔 Michel Auclair
       皮埃尔·瓦内克 Pierre Vaneck
◎标  签 法国 | 葡萄牙 | 法国电影 | Catherine_Deneuve | 黑白 | 手册高分 | 剧情
◎简  介


  暂无相关剧情先容
  1. Video
  2. ID                                       : 1
  3. Format                                   : AVC
  4. Format/Info                              : Advanced Video Codec
  5. Format profile                           : [email protected]
  6. Format settings                          : CABAC / 3 Ref Frames
  7. Format settings, CABAC                   : Yes
  8. Format settings, Reference frames        : 3 frames
  9. Codec ID                                 : V_MPEG4/ISO/AVC
  10. Duration                                 : 1 h 38 min
  11. Bit rate mode                            : Variable
  12. Bit rate                                 : 7 500 kb/s
  13. Maximum bit rate                         : 11.2 Mb/s
  14. Width                                    : 1 920 pixels
  15. Height                                   : 1 080 pixels
  16. Display aspect ratio                     : 16:9
  17. Frame rate mode                          : Constant
  18. Frame rate                               : 24.000 FPS
  19. Color space                              : YUV
  20. Chroma subsampling                       : 4:2:0
  21. Bit depth                                : 8 bits
  22. Scan type                                : Progressive
  23. Bits/(Pixel*Frame)                       : 0.151
  24. Stream size                              : 5.06 GiB (98%)
  25. Writing library                          : x264 core 148 r2724 dbe0335
  26. Encoding settings                        : cabac=1 / ref=3 / deblock=1:0:0 / analyse=0x1:0x111 / me=umh / subme=10 / psy=1 / psy_rd=1.00:0.00 / mixed_ref=1 / me_range=24 / chroma_me=1 / trellis=2 / 8x8dct=0 / cqm=0 / deadzone=21,11 / fast_pskip=1 / chroma_qp_offset=-2 / threads=8 / lookahead_threads=1 / sliced_threads=0 / nr=0 / decimate=1 / interlaced=0 / bluray_compat=0 / stitchable=1 / constrained_intra=0 / bframes=2 / b_pyramid=0 / b_adapt=2 / b_bias=0 / direct=3 / weightb=1 / open_gop=0 / weightp=2 / keyint=250 / keyint_min=24 / scenecut=0 / intra_refresh=0 / rc_lookahead=48 / rc=2pass / mbtree=1 / bitrate=7500 / ratetol=1.0 / qcomp=0.50 / qpmin=6 / qpmax=51 / qpstep=4 / cplxblur=20.0 / qblur=0.5 / vbv_maxrate=11250 / vbv_bufsize=15000 / nal_hrd=vbr / filler=0 / ip_ratio=1.40 / aq=1:1.00
  27. Default                                  : Yes
  28. Forced                                   : No
  29. Audio
  30. ID                                       : 2
  31. Format                                   : E-AC-3
  32. Format/Info                              : Enhanced AC-3
  33. Commercial name                          : Dolby Digital Plus
  34. Codec ID                                 : A_EAC3
  35. Duration                                 : 1 h 38 min
  36. Bit rate mode                            : Constant
  37. Bit rate                                 : 128 kb/s
  38. Channel(s)                               : 2 channels
  39. Channel layout                           : L R
  40. Sampling rate                            : 48.0 kHz
  41. Frame rate                               : 31.250 FPS (1536 SPF)
  42. Compression mode                         : Lossy
  43. Stream size                              : 90.4 MiB (2%)
  44. Title                                    : French
  45. Language                                 : French
  46. Service kind                             : Complete Main
  47. Default                                  : No
  48. Forced                                   : No
  49. Text #1
  50. ID                                       : 3
  51. Format                                   : UTF-8
  52. Codec ID                                 : S_TEXT/UTF8
  53. Codec ID/Info                            : UTF-8 Plain Text
  54. Duration                                 : 1 h 38 min
  55. Bit rate                                 : 69 b/s
  56. Count of elements                        : 1413
  57. Stream size                              : 50.2 KiB (0%)
  58. Title                                    : English
  59. Language                                 : English
  60. Default                                  : No
  61. Forced                                   : No
  62. Text #2
  63. ID                                       : 4
  64. Format                                   : UTF-8
  65. Codec ID                                 : S_TEXT/UTF8
  66. Codec ID/Info                            : UTF-8 Plain Text
  67. Duration                                 : 1 h 38 min
  68. Bit rate                                 : 66 b/s
  69. Count of elements                        : 1429
  70. Stream size                              : 47.9 KiB (0%)
  71. Title                                    : Croatian
  72. Language                                 : Croatian
  73. Default                                  : No
  74. Forced                                   : No
  75. Text #3
  76. ID                                       : 5
  77. Format                                   : UTF-8
  78. Codec ID                                 : S_TEXT/UTF8
  79. Codec ID/Info                            : UTF-8 Plain Text
  80. Duration                                 : 1 h 38 min
  81. Bit rate                                 : 67 b/s
  82. Count of elements                        : 1429
  83. Stream size                              : 48.3 KiB (0%)
  84. Title                                    : Czech
  85. Language                                 : Czech
  86. Default                                  : No
  87. Forced                                   : No
  88. Text #4
  89. ID                                       : 6
  90. Format                                   : UTF-8
  91. Codec ID                                 : S_TEXT/UTF8
  92. Codec ID/Info                            : UTF-8 Plain Text
  93. Duration                                 : 1 h 38 min
  94. Bit rate                                 : 69 b/s
  95. Count of elements                        : 1426
  96. Stream size                              : 49.8 KiB (0%)
  97. Title                                    : Danish
  98. Language                                 : Danish
  99. Default                                  : No
  100. Forced                                   : No
  101. Text #5
  102. ID                                       : 7
  103. Format                                   : UTF-8
  104. Codec ID                                 : S_TEXT/UTF8
  105. Codec ID/Info                            : UTF-8 Plain Text
  106. Duration                                 : 1 h 38 min
  107. Bit rate                                 : 78 b/s
  108. Count of elements                        : 1401
  109. Stream size                              : 56.3 KiB (0%)
  110. Title                                    : Dutch
  111. Language                                 : Dutch
  112. Default                                  : No
  113. Forced                                   : No
  114. Text #6
  115. ID                                       : 8
  116. Format                                   : UTF-8
  117. Codec ID                                 : S_TEXT/UTF8
  118. Codec ID/Info                            : UTF-8 Plain Text
  119. Duration                                 : 1 h 38 min
  120. Bit rate                                 : 68 b/s
  121. Count of elements                        : 1411
  122. Stream size                              : 49.2 KiB (0%)
  123. Title                                    : Finnish
  124. Language                                 : Finnish
  125. Default                                  : No
  126. Forced                                   : No
  127. Text #7
  128. ID                                       : 9
  129. Format                                   : UTF-8
  130. Codec ID                                 : S_TEXT/UTF8
  131. Codec ID/Info                            : UTF-8 Plain Text
  132. Duration                                 : 1 h 38 min
  133. Bit rate                                 : 83 b/s
  134. Count of elements                        : 1501
  135. Stream size                              : 60.3 KiB (0%)
  136. Title                                    : French
  137. Language                                 : French
  138. Default                                  : No
  139. Forced                                   : No
  140. Text #8
  141. ID                                       : 10
  142. Format                                   : UTF-8
  143. Codec ID                                 : S_TEXT/UTF8
  144. Codec ID/Info                            : UTF-8 Plain Text
  145. Duration                                 : 21 min 50 s
  146. Bit rate                                 : 3 b/s
  147. Count of elements                        : 13
  148. Stream size                              : 648 Bytes (0%)
  149. Title                                    : Forced
  150. Language                                 : French
  151. Default                                  : No
  152. Forced                                   : Yes
  153. Text #9
  154. ID                                       : 11
  155. Format                                   : UTF-8
  156. Codec ID                                 : S_TEXT/UTF8
  157. Codec ID/Info                            : UTF-8 Plain Text
  158. Duration                                 : 1 h 38 min
  159. Bit rate                                 : 123 b/s
  160. Count of elements                        : 1429
  161. Stream size                              : 89.0 KiB (0%)
  162. Title                                    : Greek
  163. Language                                 : Greek
  164. Default                                  : No
  165. Forced                                   : No
  166. Text #10
  167. ID                                       : 12
  168. Format                                   : UTF-8
  169. Codec ID                                 : S_TEXT/UTF8
  170. Codec ID/Info                            : UTF-8 Plain Text
  171. Duration                                 : 1 h 38 min
  172. Bit rate                                 : 68 b/s
  173. Count of elements                        : 1429
  174. Stream size                              : 49.2 KiB (0%)
  175. Title                                    : Hungarian
  176. Language                                 : Hungarian
  177. Default                                  : No
  178. Forced                                   : No
  179. Text #11
  180. ID                                       : 13
  181. Format                                   : UTF-8
  182. Codec ID                                 : S_TEXT/UTF8
  183. Codec ID/Info                            : UTF-8 Plain Text
  184. Duration                                 : 1 h 38 min
  185. Bit rate                                 : 67 b/s
  186. Count of elements                        : 1127
  187. Stream size                              : 48.7 KiB (0%)
  188. Title                                    : Norwegian Bokmal
  189. Language                                 : Norwegian Bokmal
  190. Default                                  : No
  191. Forced                                   : No
  192. Text #12
  193. ID                                       : 14
  194. Format                                   : UTF-8
  195. Codec ID                                 : S_TEXT/UTF8
  196. Codec ID/Info                            : UTF-8 Plain Text
  197. Duration                                 : 1 h 38 min
  198. Bit rate                                 : 69 b/s
  199. Count of elements                        : 1429
  200. Stream size                              : 50.3 KiB (0%)
  201. Title                                    : Portuguese
  202. Language                                 : Portuguese
  203. Default                                  : No
  204. Forced                                   : No
  205. Text #13
  206. ID                                       : 15
  207. Format                                   : UTF-8
  208. Codec ID                                 : S_TEXT/UTF8
  209. Codec ID/Info                            : UTF-8 Plain Text
  210. Duration                                 : 1 h 38 min
  211. Bit rate                                 : 67 b/s
  212. Count of elements                        : 1413
  213. Stream size                              : 48.8 KiB (0%)
  214. Title                                    : Romanian
  215. Language                                 : Romanian
  216. Default                                  : No
  217. Forced                                   : No
  218. Text #14
  219. ID                                       : 16
  220. Format                                   : UTF-8
  221. Codec ID                                 : S_TEXT/UTF8
  222. Codec ID/Info                            : UTF-8 Plain Text
  223. Duration                                 : 1 h 38 min
  224. Bit rate                                 : 116 b/s
  225. Count of elements                        : 1428
  226. Stream size                              : 84.0 KiB (0%)
  227. Title                                    : Russian
  228. Language                                 : Russian
  229. Default                                  : No
  230. Forced                                   : No
  231. Text #15
  232. ID                                       : 17
  233. Format                                   : UTF-8
  234. Codec ID                                 : S_TEXT/UTF8
  235. Codec ID/Info                            : UTF-8 Plain Text
  236. Duration                                 : 1 h 38 min
  237. Bit rate                                 : 73 b/s
  238. Count of elements                        : 1429
  239. Stream size                              : 53.0 KiB (0%)
  240. Title                                    : Swedish
  241. Language                                 : Swedish
  242. Default                                  : No
  243. Forced                                   : No
复制代码






                                       
                                       

                                       
                                       
                                       




回复

使用道具 举报

懒得打字嘛,点击右侧快捷回复 【右侧内容,后台自定义】
您需要登录后才可以回帖 登录 | 立即加入

本版积分规则

Archiver|小黑屋| 蓝光电影网 |网站地图

Copyright © 2021 Comsenz Inc. Powered by 蓝光电影网

蓝光电影网

本站内容由用户自主分享和转载自互联网,转载目的在于传递更多信息,并不代表本网赞同其观点和对其真实性负责。

如有侵权、违反国家法律政策行为,请联系我们,我们会第一时间及时清除和处理!

举报反馈邮箱:[email protected]

快速回复 返回顶部 返回列表