找回密码

蓝光电影网

查看: 333|回复: 2

[恐怖] 羊崽 Lamb.2021.ICELANDIC.1080p.AMZN.WEBRip.DDP5.1.x264-TEPES 6.96GB

[复制链接]
蓝光币
733
发表于 2021-10-29 01:02:43 | 显示全部楼层 |阅读模式


◎译  名 羊崽/Lamb/羊惧(港)/羊懼(台)
◎片  名 Dyrie
◎年  代 2021
◎产  地 冰岛,瑞典,波兰
◎类  别 可骇
◎语  言 冰岛语
◎上映日期 2021-07-13(戛纳电影节) / 2021-08-20(冰岛) / 2021-10-08(美国)
◎豆瓣评分 6.2/10 from 697 users
◎豆瓣链接 https://movie.douban.com/subject/33450810/
◎片  长 106分钟
◎导  演 瓦尔迪马尔·约翰逊 Valdimar Jóhannsson
◎编  剧 秀恩·西古尔德森 Sjón Sigurdsson / 瓦尔迪马尔·约翰逊 Valdimar Jóhannsson
◎主  演 劳米·拉佩斯 Noomi Rapace
       比约恩·西鲁·哈瑞森 Bj?rn Hlynur Haraldsson
       英格瓦·埃盖特·西古德松 Ingvar Eggert Siguresson
       赫米尔·希尼·古纳森 Hilmir Sn?r Guenason
◎标  签 可骇 | 悬疑 | 冰岛 | 2021 | 剧情 | 戛纳 | 电影 | 瑞典
◎简  介


  圣诞节前夜,冰岛一对丧子的牧羊人佳耦,把一个半人半羊的小孩带回家抚养,羊崽给这个家庭带来了欢乐,而未知的可骇气力正在摧毁他们。
◎获奖情况
  第74届戛纳电影节 ?(2021)
  一种关注单元一种关注大奖(提名) 瓦尔迪马尔·约翰逊
  一种关注单元原创奖
  1. Video
  2. ID                                       : 1
  3. Format                                   : AVC
  4. Format/Info                              : Advanced Video Codec
  5. Format profile                           : [email protected]
  6. Format settings                          : CABAC / 4 Ref Frames
  7. Format settings, CABAC                   : Yes
  8. Format settings, Reference frames        : 4 frames
  9. Codec ID                                 : V_MPEG4/ISO/AVC
  10. Duration                                 : 1 h 46 min
  11. Bit rate mode                            : Constant
  12. Bit rate                                 : 8 722 kb/s
  13. Nominal bit rate                         : 10 000 kb/s
  14. Width                                    : 1 920 pixels
  15. Height                                   : 800 pixels
  16. Display aspect ratio                     : 2.40:1
  17. Frame rate mode                          : Constant
  18. Frame rate                               : 23.976 (24000/1001/189150) FPS
  19. Color space                              : YUV
  20. Chroma subsampling                       : 4:2:0
  21. Bit depth                                : 8 bits
  22. Scan type                                : Progressive
  23. Bits/(Pixel*Frame)                       : 0.237
  24. Stream size                              : 6.49 GiB (93%)
  25. Language                                 : Icelandic
  26. Default                                  : Yes
  27. Forced                                   : No
  28. Color range                              : Limited
  29. Color primaries                          : BT.709
  30. Transfer characteristics                 : BT.709
  31. Matrix coefficients                      : BT.709
  32. Audio
  33. ID                                       : 2
  34. Format                                   : E-AC-3
  35. Format/Info                              : Enhanced AC-3
  36. Commercial name                          : Dolby Digital Plus
  37. Codec ID                                 : A_EAC3
  38. Duration                                 : 1 h 46 min
  39. Bit rate mode                            : Constant
  40. Bit rate                                 : 640 kb/s
  41. Channel(s)                               : 6 channels
  42. Channel layout                           : L R C LFE Ls Rs
  43. Sampling rate                            : 48.0 kHz
  44. Frame rate                               : 31.250 FPS (1536 SPF)
  45. Compression mode                         : Lossy
  46. Stream size                              : 487 MiB (7%)
  47. Language                                 : Icelandic
  48. Service kind                             : Complete Main
  49. Default                                  : Yes
  50. Forced                                   : No
  51. Text #1
  52. ID                                       : 3
  53. Format                                   : UTF-8
  54. Codec ID                                 : S_TEXT/UTF8
  55. Codec ID/Info                            : UTF-8 Plain Text
  56. Duration                                 : 1 h 38 min
  57. Bit rate                                 : 10 b/s
  58. Count of elements                        : 305
  59. Stream size                              : 7.67 KiB (0%)
  60. Language                                 : English
  61. Default                                  : No
  62. Forced                                   : No
  63. Text #2
  64. ID                                       : 4
  65. Format                                   : UTF-8
  66. Codec ID                                 : S_TEXT/UTF8
  67. Codec ID/Info                            : UTF-8 Plain Text
  68. Duration                                 : 1 h 38 min
  69. Bit rate                                 : 10 b/s
  70. Count of elements                        : 305
  71. Stream size                              : 7.68 KiB (0%)
  72. Title                                    : Latin American
  73. Language                                 : Spanish
  74. Default                                  : No
  75. Forced                                   : No
复制代码







                                       
                                       

                                       
                                       
                                       




回复

使用道具 举报

蓝光币
0
发表于 2021-10-29 11:48:16 | 显示全部楼层
感谢楼主分享哈哈
回复 支持 反对

使用道具 举报

蓝光币
24
发表于 2021-10-31 22:04:15 | 显示全部楼层

感谢楼主分享哈哈
回复 支持 反对

使用道具 举报

懒得打字嘛,点击右侧快捷回复 【右侧内容,后台自定义】
您需要登录后才可以回帖 登录 | 立即加入

本版积分规则

Archiver|小黑屋| 蓝光电影网 |网站地图

Copyright © 2021 Comsenz Inc. Powered by 蓝光电影网

蓝光电影网

本站内容由用户自主分享和转载自互联网,转载目的在于传递更多信息,并不代表本网赞同其观点和对其真实性负责。

如有侵权、违反国家法律政策行为,请联系我们,我们会第一时间及时清除和处理!

举报反馈邮箱:[email protected]

快速回复 返回顶部 返回列表