找回密码

蓝光电影网

查看: 236|回复: 0

[其他] 丛林精神/森林守護隊 AINBO.Spirit.of.the.Amazon.2021.720p.BluRay.x264-KNiVES 1.83GB

[复制链接]
蓝光币
682
发表于 2021-10-28 23:35:41 | 显示全部楼层 |阅读模式


◎译  名 森林精神/森林守護隊(港)
◎片  名 Ainbo
◎年  代 2021
◎产  地 秘鲁
◎类  别 动画
◎语  言 西班牙语
◎上映日期 2021-03-03(荷兰) / 2021-03-18(俄罗斯)
◎豆瓣评分 /10 from 0 users
◎豆瓣链接 https://movie.douban.com/subject/30254679/
◎导  演 塞萨尔·泽拉达 Cesar Zelada / 约瑟·泽拉达 Jose Zelada
◎编  剧 杰森·克利夫兰 Jason Cleveland / 约瑟·泽拉达 Jose Zelada / 塞萨尔·泽拉达 Cesar Zelada
◎主  演 伯纳多·德·保拉 Bernardo de Paula
       迪诺·安德拉德 Dino Andrade
       亚历杭德拉·戈拉斯 Alejandra Gollas
       苏珊娜·巴列斯特罗斯 Susana Ballesteros
       汤姆·霍夫曼 Thom Hoffman
◎标  签 动画 | 动画电影 | 秘鲁 | 秘鲁电影 | 电影 | 法国 | BASE | 2020
◎简  介


  一个女孩在亚马逊最深的森林科洛尼亚诞生并长大,科洛尼亚依靠亚马逊最强大的母亲精神“海龟妈妈”的支持。有一天,她发现她的祖国正遭到威胁,并意想到除了她的群众,天下上还有其他人类。当她尽力拯救她的天堂,否决对儿童的贪心和剥削,砍木和不法采矿,她起头尽力改变这类扑灭和行将到来的邪恶的尤库鲁纳,生活在亚马逊河的黑暗。在母亲的精神指引下,安波决心拯救她的地盘和群众,免得为时已晚。
  1. Video
  2. ID                                       : 1
  3. Format                                   : AVC
  4. Format/Info                              : Advanced Video Codec
  5. Format profile                           : [email protected]
  6. Format settings                          : CABAC / 8 Ref Frames
  7. Format settings, CABAC                   : Yes
  8. Format settings, Reference frames        : 8 frames
  9. Codec ID                                 : V_MPEG4/ISO/AVC
  10. Duration                                 : 1 h 24 min
  11. Bit rate                                 : 2 439 kb/s
  12. Width                                    : 1 280 pixels
  13. Height                                   : 536 pixels
  14. Display aspect ratio                     : 2.40:1
  15. Frame rate mode                          : Constant
  16. Frame rate                               : 24.000 FPS
  17. Color space                              : YUV
  18. Chroma subsampling                       : 4:2:0
  19. Bit depth                                : 8 bits
  20. Scan type                                : Progressive
  21. Bits/(Pixel*Frame)                       : 0.148
  22. Stream size                              : 1.44 GiB (79%)
  23. Writing library                          : x264 core 164 r3065 ae03d92
  24. Encoding settings                        : cabac=1 / ref=8 / deblock=1:-3:-3 / analyse=0x3:0x133 / me=umh / subme=9 / psy=1 / psy_rd=1.00:0.00 / mixed_ref=1 / me_range=16 / chroma_me=1 / trellis=2 / 8x8dct=1 / cqm=0 / deadzone=21,11 / fast_pskip=0 / chroma_qp_offset=-2 / threads=17 / lookahead_threads=1 / sliced_threads=0 / nr=0 / decimate=1 / interlaced=0 / bluray_compat=0 / constrained_intra=0 / bframes=3 / b_pyramid=2 / b_adapt=2 / b_bias=0 / direct=3 / weightb=1 / open_gop=0 / weightp=2 / keyint=250 / keyint_min=24 / scenecut=40 / intra_refresh=0 / rc_lookahead=60 / rc=crf / mbtree=1 / crf=17.0 / qcomp=0.60 / qpmin=0 / qpmax=69 / qpstep=4 / ip_ratio=1.40 / aq=1:1.00
  25. Language                                 : English
  26. Default                                  : Yes
  27. Forced                                   : No
  28. Audio
  29. ID                                       : 2
  30. Format                                   : AC-3
  31. Format/Info                              : Audio Coding 3
  32. Commercial name                          : Dolby Digital
  33. Codec ID                                 : A_AC3
  34. Duration                                 : 1 h 24 min
  35. Bit rate mode                            : Constant
  36. Bit rate                                 : 640 kb/s
  37. Channel(s)                               : 6 channels
  38. Channel layout                           : L R C LFE Ls Rs
  39. Sampling rate                            : 48.0 kHz
  40. Frame rate                               : 31.250 FPS (1536 SPF)
  41. Compression mode                         : Lossy
  42. Stream size                              : 388 MiB (21%)
  43. Language                                 : English
  44. Service kind                             : Complete Main
  45. Default                                  : Yes
  46. Forced                                   : No
  47. Text
  48. ID                                       : 3
  49. Format                                   : PGS
  50. Muxing mode                              : zlib
  51. Codec ID                                 : S_HDMV/PGS
  52. Codec ID/Info                            : Picture based subtitle format used on BDs/HD-DVDs
  53. Duration                                 : 1 h 17 min
  54. Bit rate                                 : 34.9 kb/s
  55. Count of elements                        : 2174
  56. Stream size                              : 19.4 MiB (1%)
  57. Language                                 : German
  58. Default                                  : No
  59. Forced                                   : No
  60. Menu
  61. 00:00:00.000                             : en:Chapter 01
  62. 00:07:39.375                             : en:Chapter 02
  63. 00:15:37.833                             : en:Chapter 03
  64. 00:23:46.500                             : en:Chapter 04
  65. 00:29:52.417                             : en:Chapter 05
  66. 00:35:38.958                             : en:Chapter 06
  67. 00:42:04.458                             : en:Chapter 07
  68. 00:48:36.875                             : en:Chapter 08
  69. 00:56:07.917                             : en:Chapter 09
  70. 01:03:07.875                             : en:Chapter 10
  71. 01:10:26.125                             : en:Chapter 11
  72. 01:18:34.875                             : en:Chapter 12
复制代码




                                       
                                       

                                       
                                       
                                       




回复

使用道具 举报

懒得打字嘛,点击右侧快捷回复 【右侧内容,后台自定义】
您需要登录后才可以回帖 登录 | 立即加入

本版积分规则

Archiver|小黑屋| 蓝光电影网 |网站地图

Copyright © 2021 Comsenz Inc. Powered by 蓝光电影网

蓝光电影网

本站内容由用户自主分享和转载自互联网,转载目的在于传递更多信息,并不代表本网赞同其观点和对其真实性负责。

如有侵权、违反国家法律政策行为,请联系我们,我们会第一时间及时清除和处理!

举报反馈邮箱:[email protected]

快速回复 返回顶部 返回列表