找回密码

蓝光电影网

查看: 369|回复: 6

[10bit.SDR] 黑夜传说4:觉醒 Underworld.Awakening.2012.2160p.BluRay.x265.10bit.SDR.DTS-HD.MA.TrueHD.7.1.Atmos-SWTYBLZ 16.04GB

[复制链接]
蓝光币
682
发表于 2021-10-29 00:20:22 | 显示全部楼层 |阅读模式


◎译  名 黑夜传闻4:醒觉/Underworld 4: New Dawn/决战异天下:未来苏醒3D(台)/妖夜寻狼:血姬醒觉(港)
◎片  名 Underworld: Awakening
◎年  代 2012
◎产  地 美国
◎类  别 行动 / 惊悚 / 奇异
◎语  言 英语
◎上映日期 2012-01-20(美国)
◎豆瓣评分 6.7/10 from 48483 users
◎豆瓣链接 https://movie.douban.com/subject/3990098/
◎片  长 88分钟
◎导  演 曼斯·马林德 M?ns M?rlind / 比约恩·史坦 Bj?rn Stein
◎编  剧 伦·怀斯曼 Len Wiseman / J·迈克尔·斯特拉辛斯基 J. Michael Straczynski
◎主  演 凯特·贝金赛尔 Kate Beckinsale
       英迪娅·埃斯利 India Eisley
       迈克尔·伊雷 Michael Ealy
       克里斯·霍尔登-里德 Kris Holden-Ried
       何家蓓 Sandrine Holt
       理查德·赛特伦 Richard Cetrone
       罗伯特·劳兰逊 Robert Lawrenson
       西奥·詹姆斯 Theo James
       查尔斯·丹斯 Charles Dance
◎标  签 吸血鬼 | 狼人 | 美国 | 行动 | 魔幻 | 科幻 | 2012 | 奇异
◎简  介


  终究有一天,人类向日渐增加的血族和狼族宣战,这两个族群遭到大举围歼与屠杀,人类获得绝对的上风。塞琳娜(凯特·贝金赛尔 Kate Beckinsale 饰)和约翰也在这场浩劫中遭难,当她再次醒来时,却发现自己被名为抗原研讨所的机构软禁起来,编号尝试品1号。她奋力冲破了约束,按照共视的才能在黑暗的都会中寻觅尝试品2号——约翰。途中她遭受血族的同伴互助以及狼人的攻击,当她找到被狼人们追逐的尝试品2号时却发现,眼前竟是一个从没见过面但有着极为可骇气力的小女孩——伊薇(英迪娅·埃斯利 India Eisley 饰),而她是血族与狼族的混血儿。
  
  在这个陌生的时代,塞琳娜必定继续过着血雨腥风的生活……
  1. Video
  2. ID                                       : 1
  3. Format                                   : HEVC
  4. Format/Info                              : High Efficiency Video Coding
  5. Format profile                           : Main [email protected]@High
  6. Codec ID                                 : V_MPEGH/ISO/HEVC
  7. Duration                                 : 1 h 28 min
  8. Bit rate                                 : 16.9 Mb/s
  9. Width                                    : 3 840 pixels
  10. Height                                   : 1 606 pixels
  11. Display aspect ratio                     : 2.40:1
  12. Frame rate mode                          : Constant
  13. Frame rate                               : 23.976 (24000/1001/189150) FPS
  14. Color space                              : YUV
  15. Chroma subsampling                       : 4:2:0
  16. Bit depth                                : 10 bits
  17. Bits/(Pixel*Frame)                       : 0.114
  18. Stream size                              : 10.5 GiB (65%)
  19. Writing library                          : x265 3.0ed72af837053:[Windows][GCC 8.2.0][64 bit] 10bit
  20. Encoding settings                        : cpuid=1111039 / frame-threads=6 / numa-pools=40 / wpp / no-pmode / no-pme / no-psnr / no-ssim / log-level=2 / input-csp=1 / input-res=3840x1606 / interlace=0 / total-frames=127392 / level-idc=51 / high-tier=1 / uhd-bd=0 / ref=3 / no-allow-non-conformance / repeat-headers / annexb / aud / hrd / info / hash=0 / no-temporal-layers / no-open-gop / min-keyint=1 / keyint=24 / gop-lookahead=0 / bframes=4 / b-adapt=2 / b-pyramid / bframe-bias=0 / rc-lookahead=25 / lookahead-slices=4 / scenecut=40 / radl=0 / no-splice / no-intra-refresh / ctu=64 / min-cu-size=8 / no-rect / no-amp / max-tu-size=32 / tu-inter-depth=1 / tu-intra-depth=1 / limit-tu=0 / rdoq-level=0 / dynamic-rd=0.00 / no-ssim-rd / signhide / no-tskip / nr-intra=0 / nr-inter=0 / no-constrained-intra / strong-intra-smoothing / max-merge=2 / limit-refs=3 / no-limit-modes / me=1 / subme=2 / merange=57 / temporal-mvp / weightp / no-weightb / no-analyze-src-pics / deblock=0:0 / no-sao / no-sao-non-deblock / rd=3 / no-early-skip / rskip / no-fast-intra / no-tskip-fast / no-cu-lossless / no-b-intra / no-splitrd-skip / rdpenalty=0 / psy-rd=2.00 / psy-rdoq=0.00 / no-rd-refine / no-lossless / cbqpoffs=0 / crqpoffs=0 / rc=crf / crf=16.0 / qcomp=0.60 / qpstep=4 / stats-write=0 / stats-read=0 / vbv-maxrate=160000 / vbv-bufsize=160000 / vbv-init=0.9 / crf-max=0.0 / crf-min=0.0 / ipratio=1.40 / pbratio=1.30 / aq-mode=1 / aq-strength=1.00 / cutree / zone-count=0 / no-strict-cbr / qg-size=32 / no-rc-grain / qpmax=69 / qpmin=0 / no-const-vbv / sar=1 / overscan=0 / videoformat=5 / range=0 / colorprim=2 / transfer=2 / colormatrix=2 / chromaloc=0 / display-window=0 / max-cll=0,0 / min-luma=0 / max-luma=1023 / log2-max-poc-lsb=8 / vui-timing-info / vui-hrd-info / slices=1 / opt-qp-pps / opt-ref-list-length-pps / no-multi-pass-opt-rps / scenecut-bias=0.05 / no-opt-cu-delta-qp / no-aq-motion / no-hdr / no-hdr-opt / no-dhdr10-opt / no-idr-recovery-sei / analysis-reuse-level=5 / scale-factor=0 / refine-intra=0 / refine-inter=0 / refine-mv=0 / refine-ctu-distortion=0 / no-limit-sao / ctu-info=0 / no-lowpass-dct / refine-analysis-type=0 / copy-pic=1 / max-ausize-factor=1.0 / no-dynamic-refine / no-single-sei / no-hevc-aq / qp-adaptation-range=1.00
  21. Default                                  : Yes
  22. Forced                                   : No

  23. Audio #1
  24. ID                                       : 2
  25. ID in the original source medium         : 4352 (0x1100)
  26. Format                                   : MLP FBA 16-ch
  27. Format/Info                              : Meridian Lossless Packing FBA with 16-channel presentation
  28. Commercial name                          : Dolby TrueHD with Dolby Atmos
  29. Codec ID                                 : A_TRUEHD
  30. Duration                                 : 1 h 28 min
  31. Bit rate mode                            : Variable
  32. Bit rate                                 : 5 020 kb/s
  33. Maximum bit rate                         : 8 295 kb/s
  34. Channel(s)                               : 8 channels
  35. Channel layout                           : L R C LFE Ls Rs Lb Rb
  36. Sampling rate                            : 48.0 kHz
  37. Frame rate                               : 1 200.000 FPS (40 SPF)
  38. Bit depth                                : 24 bits
  39. Compression mode                         : Lossless
  40. Stream size                              : 3.10 GiB (19%)
  41. Title                                    : TrueHD 7.1 Atmos
  42. Language                                 : English
  43. Default                                  : Yes
  44. Forced                                   : No
  45. Original source medium                   : Blu-ray
  46. Number of dynamic objects                : 11
  47. Bed channel count                        : 1 channel
  48. Bed channel configuration                : LFE

  49. Audio #2
  50. ID                                       : 3
  51. ID in the original source medium         : 4353 (0x1101)
  52. Format                                   : DTS XLL
  53. Format/Info                              : Digital Theater Systems
  54. Commercial name                          : DTS-HD Master Audio
  55. Codec ID                                 : A_DTS
  56. Duration                                 : 1 h 28 min
  57. Bit rate mode                            : Variable
  58. Bit rate                                 : 2 939 kb/s
  59. Channel(s)                               : 8 channels
  60. Channel layout                           : C L R LFE Lb Rb Lss Rss
  61. Sampling rate                            : 48.0 kHz
  62. Frame rate                               : 93.750 FPS (512 SPF)
  63. Bit depth                                : 16 bits
  64. Compression mode                         : Lossless
  65. Stream size                              : 1.82 GiB (11%)
  66. Title                                    : DTS-HD MA 7.1
  67. Language                                 : English
  68. Default                                  : No
  69. Forced                                   : No
  70. Original source medium                   : Blu-ray

  71. Audio #3
  72. ID                                       : 4
  73. ID in the original source medium         : 4352 (0x1100)
  74. Format                                   : AC-3
  75. Format/Info                              : Audio Coding 3
  76. Commercial name                          : Dolby Digital
  77. Codec ID                                 : A_AC3
  78. Duration                                 : 1 h 28 min
  79. Bit rate mode                            : Constant
  80. Bit rate                                 : 640 kb/s
  81. Channel(s)                               : 6 channels
  82. Channel layout                           : L R C LFE Ls Rs
  83. Sampling rate                            : 48.0 kHz
  84. Frame rate                               : 31.250 FPS (1536 SPF)
  85. Compression mode                         : Lossy
  86. Stream size                              : 405 MiB (2%)
  87. Title                                    : DD 5.1
  88. Language                                 : English
  89. Service kind                             : Complete Main
  90. Default                                  : No
  91. Forced                                   : No
  92. Original source medium                   : Blu-ray

  93. Text #1
  94. ID                                       : 5
  95. Format                                   : UTF-8
  96. Codec ID                                 : S_TEXT/UTF8
  97. Codec ID/Info                            : UTF-8 Plain Text
  98. Duration                                 : 1 h 17 min
  99. Bit rate                                 : 34 b/s
  100. Count of elements                        : 691
  101. Stream size                              : 19.5 KiB (0%)
  102. Title                                    : SRT
  103. Language                                 : English
  104. Default                                  : Yes
  105. Forced                                   : No

  106. Text #2
  107. ID                                       : 6
  108. ID in the original source medium         : 4768 (0x12A0)
  109. Format                                   : PGS
  110. Muxing mode                              : zlib
  111. Codec ID                                 : S_HDMV/PGS
  112. Codec ID/Info                            : Picture based subtitle format used on BDs/HD-DVDs
  113. Duration                                 : 1 h 21 min
  114. Bit rate                                 : 24.5 kb/s
  115. Count of elements                        : 1704
  116. Stream size                              : 14.3 MiB (0%)
  117. Title                                    : SDH
  118. Language                                 : English
  119. Default                                  : No
  120. Forced                                   : No
  121. Original source medium                   : Blu-ray

  122. Text #3
  123. ID                                       : 7
  124. ID in the original source medium         : 4769 (0x12A1)
  125. Format                                   : PGS
  126. Muxing mode                              : zlib
  127. Codec ID                                 : S_HDMV/PGS
  128. Codec ID/Info                            : Picture based subtitle format used on BDs/HD-DVDs
  129. Duration                                 : 1 h 17 min
  130. Bit rate                                 : 20.5 kb/s
  131. Count of elements                        : 1445
  132. Stream size                              : 11.4 MiB (0%)
  133. Language                                 : English
  134. Default                                  : No
  135. Forced                                   : No
  136. Original source medium                   : Blu-ray

  137. Text #4
  138. ID                                       : 8
  139. ID in the original source medium         : 4770 (0x12A2)
  140. Format                                   : PGS
  141. Muxing mode                              : zlib
  142. Codec ID                                 : S_HDMV/PGS
  143. Codec ID/Info                            : Picture based subtitle format used on BDs/HD-DVDs
  144. Duration                                 : 1 h 21 min
  145. Bit rate                                 : 24.5 kb/s
  146. Count of elements                        : 1704
  147. Stream size                              : 14.3 MiB (0%)
  148. Title                                    : SDH
  149. Language                                 : English
  150. Default                                  : No
  151. Forced                                   : No
  152. Original source medium                   : Blu-ray

  153. Text #5
  154. ID                                       : 9
  155. ID in the original source medium         : 4771 (0x12A3)
  156. Format                                   : PGS
  157. Muxing mode                              : zlib
  158. Codec ID                                 : S_HDMV/PGS
  159. Codec ID/Info                            : Picture based subtitle format used on BDs/HD-DVDs
  160. Duration                                 : 1 h 17 min
  161. Bit rate                                 : 20.5 kb/s
  162. Count of elements                        : 1454
  163. Stream size                              : 11.4 MiB (0%)
  164. Language                                 : English
  165. Default                                  : No
  166. Forced                                   : No
  167. Original source medium                   : Blu-ray

  168. Text #6
  169. ID                                       : 10
  170. ID in the original source medium         : 4772 (0x12A4)
  171. Format                                   : PGS
  172. Muxing mode                              : zlib
  173. Codec ID                                 : S_HDMV/PGS
  174. Codec ID/Info                            : Picture based subtitle format used on BDs/HD-DVDs
  175. Duration                                 : 1 h 17 min
  176. Bit rate                                 : 10.6 kb/s
  177. Count of elements                        : 1475
  178. Stream size                              : 5.87 MiB (0%)
  179. Language                                 : Arabic
  180. Default                                  : No
  181. Forced                                   : No
  182. Original source medium                   : Blu-ray

  183. Text #7
  184. ID                                       : 11
  185. ID in the original source medium         : 4773 (0x12A5)
  186. Format                                   : PGS
  187. Muxing mode                              : zlib
  188. Codec ID                                 : S_HDMV/PGS
  189. Codec ID/Info                            : Picture based subtitle format used on BDs/HD-DVDs
  190. Duration                                 : 1 h 27 min
  191. Bit rate                                 : 16.6 kb/s
  192. Count of elements                        : 1453
  193. Stream size                              : 10.4 MiB (0%)
  194. Language                                 : Chinese
  195. Default                                  : No
  196. Forced                                   : No
  197. Original source medium                   : Blu-ray

  198. Text #8
  199. ID                                       : 12
  200. ID in the original source medium         : 4774 (0x12A6)
  201. Format                                   : PGS
  202. Muxing mode                              : zlib
  203. Codec ID                                 : S_HDMV/PGS
  204. Codec ID/Info                            : Picture based subtitle format used on BDs/HD-DVDs
  205. Duration                                 : 1 h 17 min
  206. Bit rate                                 : 19.0 kb/s
  207. Count of elements                        : 1459
  208. Stream size                              : 10.6 MiB (0%)
  209. Language                                 : Chinese
  210. Default                                  : No
  211. Forced                                   : No
  212. Original source medium                   : Blu-ray

  213. Text #9
  214. ID                                       : 13
  215. ID in the original source medium         : 4775 (0x12A7)
  216. Format                                   : PGS
  217. Muxing mode                              : zlib
  218. Codec ID                                 : S_HDMV/PGS
  219. Codec ID/Info                            : Picture based subtitle format used on BDs/HD-DVDs
  220. Duration                                 : 1 h 17 min
  221. Bit rate                                 : 17.9 kb/s
  222. Count of elements                        : 1451
  223. Stream size                              : 9.93 MiB (0%)
  224. Language                                 : Czech
  225. Default                                  : No
  226. Forced                                   : No
  227. Original source medium                   : Blu-ray

  228. Text #10
  229. ID                                       : 14
  230. ID in the original source medium         : 4776 (0x12A8)
  231. Format                                   : PGS
  232. Muxing mode                              : zlib
  233. Codec ID                                 : S_HDMV/PGS
  234. Codec ID/Info                            : Picture based subtitle format used on BDs/HD-DVDs
  235. Duration                                 : 1 h 27 min
  236. Bit rate                                 : 17.0 kb/s
  237. Count of elements                        : 1268
  238. Stream size                              : 10.7 MiB (0%)
  239. Language                                 : Danish
  240. Default                                  : No
  241. Forced                                   : No
  242. Original source medium                   : Blu-ray

  243. Text #11
  244. ID                                       : 15
  245. ID in the original source medium         : 4777 (0x12A9)
  246. Format                                   : PGS
  247. Muxing mode                              : zlib
  248. Codec ID                                 : S_HDMV/PGS
  249. Codec ID/Info                            : Picture based subtitle format used on BDs/HD-DVDs
  250. Duration                                 : 1 h 27 min
  251. Bit rate                                 : 15.9 kb/s
  252. Count of elements                        : 1457
  253. Stream size                              : 9.97 MiB (0%)
  254. Language                                 : Dutch
  255. Default                                  : No
  256. Forced                                   : No
  257. Original source medium                   : Blu-ray

  258. Text #12
  259. ID                                       : 16
  260. ID in the original source medium         : 4778 (0x12AA)
  261. Format                                   : PGS
  262. Muxing mode                              : zlib
  263. Codec ID                                 : S_HDMV/PGS
  264. Codec ID/Info                            : Picture based subtitle format used on BDs/HD-DVDs
  265. Duration                                 : 1 h 17 min
  266. Bit rate                                 : 20.0 kb/s
  267. Count of elements                        : 1465
  268. Stream size                              : 11.1 MiB (0%)
  269. Language                                 : Estonian
  270. Default                                  : No
  271. Forced                                   : No
  272. Original source medium                   : Blu-ray

  273. Text #13
  274. ID                                       : 17
  275. ID in the original source medium         : 4779 (0x12AB)
  276. Format                                   : PGS
  277. Muxing mode                              : zlib
  278. Codec ID                                 : S_HDMV/PGS
  279. Codec ID/Info                            : Picture based subtitle format used on BDs/HD-DVDs
  280. Duration                                 : 1 h 27 min
  281. Bit rate                                 : 19.4 kb/s
  282. Count of elements                        : 1482
  283. Stream size                              : 12.2 MiB (0%)
  284. Language                                 : Finnish
  285. Default                                  : No
  286. Forced                                   : No
  287. Original source medium                   : Blu-ray

  288. Text #14
  289. ID                                       : 18
  290. ID in the original source medium         : 4780 (0x12AC)
  291. Format                                   : PGS
  292. Muxing mode                              : zlib
  293. Codec ID                                 : S_HDMV/PGS
  294. Codec ID/Info                            : Picture based subtitle format used on BDs/HD-DVDs
  295. Duration                                 : 1 h 27 min
  296. Bit rate                                 : 13.7 kb/s
  297. Count of elements                        : 1444
  298. Stream size                              : 8.59 MiB (0%)
  299. Language                                 : French
  300. Default                                  : No
  301. Forced                                   : No
  302. Original source medium                   : Blu-ray

  303. Text #15
  304. ID                                       : 19
  305. ID in the original source medium         : 4780 (0x12AC)
  306. Format                                   : PGS
  307. Muxing mode                              : zlib
  308. Codec ID                                 : S_HDMV/PGS
  309. Codec ID/Info                            : Picture based subtitle format used on BDs/HD-DVDs
  310. Duration                                 : 1 h 19 min
  311. Bit rate                                 : 258 b/s
  312. Count of elements                        : 22
  313. Stream size                              : 151 KiB (0%)
  314. Language                                 : French
  315. Default                                  : No
  316. Forced                                   : No
  317. Original source medium                   : Blu-ray

  318. Text #16
  319. ID                                       : 20
  320. ID in the original source medium         : 4781 (0x12AD)
  321. Format                                   : PGS
  322. Muxing mode                              : zlib
  323. Codec ID                                 : S_HDMV/PGS
  324. Codec ID/Info                            : Picture based subtitle format used on BDs/HD-DVDs
  325. Duration                                 : 1 h 27 min
  326. Bit rate                                 : 18.8 kb/s
  327. Count of elements                        : 1474
  328. Stream size                              : 11.8 MiB (0%)
  329. Language                                 : German
  330. Default                                  : No
  331. Forced                                   : No
  332. Original source medium                   : Blu-ray

  333. Text #17
  334. ID                                       : 21
  335. ID in the original source medium         : 4781 (0x12AD)
  336. Format                                   : PGS
  337. Muxing mode                              : zlib
  338. Codec ID                                 : S_HDMV/PGS
  339. Codec ID/Info                            : Picture based subtitle format used on BDs/HD-DVDs
  340. Duration                                 : 1 h 14 min
  341. Bit rate                                 : 369 b/s
  342. Count of elements                        : 16
  343. Stream size                              : 202 KiB (0%)
  344. Language                                 : German
  345. Default                                  : No
  346. Forced                                   : No
  347. Original source medium                   : Blu-ray

  348. Text #18
  349. ID                                       : 22
  350. ID in the original source medium         : 4782 (0x12AE)
  351. Format                                   : PGS
  352. Muxing mode                              : zlib
  353. Codec ID                                 : S_HDMV/PGS
  354. Codec ID/Info                            : Picture based subtitle format used on BDs/HD-DVDs
  355. Duration                                 : 1 h 27 min
  356. Bit rate                                 : 15.2 kb/s
  357. Count of elements                        : 1490
  358. Stream size                              : 9.53 MiB (0%)
  359. Language                                 : Hindi
  360. Default                                  : No
  361. Forced                                   : No
  362. Original source medium                   : Blu-ray

  363. Text #19
  364. ID                                       : 23
  365. ID in the original source medium         : 4783 (0x12AF)
  366. Format                                   : PGS
  367. Muxing mode                              : zlib
  368. Codec ID                                 : S_HDMV/PGS
  369. Codec ID/Info                            : Picture based subtitle format used on BDs/HD-DVDs
  370. Duration                                 : 1 h 27 min
  371. Bit rate                                 : 17.9 kb/s
  372. Count of elements                        : 1482
  373. Stream size                              : 11.3 MiB (0%)
  374. Language                                 : Hungarian
  375. Default                                  : No
  376. Forced                                   : No
  377. Original source medium                   : Blu-ray

  378. Text #20
  379. ID                                       : 24
  380. ID in the original source medium         : 4784 (0x12B0)
  381. Format                                   : PGS
  382. Muxing mode                              : zlib
  383. Codec ID                                 : S_HDMV/PGS
  384. Codec ID/Info                            : Picture based subtitle format used on BDs/HD-DVDs
  385. Duration                                 : 1 h 27 min
  386. Bit rate                                 : 20.2 kb/s
  387. Count of elements                        : 1465
  388. Stream size                              : 12.7 MiB (0%)
  389. Language                                 : Italian
  390. Default                                  : No
  391. Forced                                   : No
  392. Original source medium                   : Blu-ray

  393. Text #21
  394. ID                                       : 25
  395. ID in the original source medium         : 4784 (0x12B0)
  396. Format                                   : PGS
  397. Muxing mode                              : zlib
  398. Codec ID                                 : S_HDMV/PGS
  399. Codec ID/Info                            : Picture based subtitle format used on BDs/HD-DVDs
  400. Duration                                 : 56 min 27 s
  401. Bit rate                                 : 280 b/s
  402. Count of elements                        : 14
  403. Stream size                              : 116 KiB (0%)
  404. Language                                 : Italian
  405. Default                                  : No
  406. Forced                                   : No
  407. Original source medium                   : Blu-ray

  408. Text #22
  409. ID                                       : 26
  410. ID in the original source medium         : 4785 (0x12B1)
  411. Format                                   : PGS
  412. Muxing mode                              : zlib
  413. Codec ID                                 : S_HDMV/PGS
  414. Codec ID/Info                            : Picture based subtitle format used on BDs/HD-DVDs
  415. Duration                                 : 1 h 27 min
  416. Bit rate                                 : 13.6 kb/s
  417. Count of elements                        : 1164
  418. Stream size                              : 8.49 MiB (0%)
  419. Language                                 : Japanese
  420. Default                                  : No
  421. Forced                                   : No
  422. Original source medium                   : Blu-ray

  423. Text #23
  424. ID                                       : 27
  425. ID in the original source medium         : 4786 (0x12B2)
  426. Format                                   : PGS
  427. Muxing mode                              : zlib
  428. Codec ID                                 : S_HDMV/PGS
  429. Codec ID/Info                            : Picture based subtitle format used on BDs/HD-DVDs
  430. Duration                                 : 1 h 27 min
  431. Bit rate                                 : 11.0 kb/s
  432. Count of elements                        : 1417
  433. Stream size                              : 6.93 MiB (0%)
  434. Language                                 : Korean
  435. Default                                  : No
  436. Forced                                   : No
  437. Original source medium                   : Blu-ray

  438. Text #24
  439. ID                                       : 28
  440. ID in the original source medium         : 4787 (0x12B3)
  441. Format                                   : PGS
  442. Muxing mode                              : zlib
  443. Codec ID                                 : S_HDMV/PGS
  444. Codec ID/Info                            : Picture based subtitle format used on BDs/HD-DVDs
  445. Duration                                 : 1 h 17 min
  446. Bit rate                                 : 20.5 kb/s
  447. Count of elements                        : 1487
  448. Stream size                              : 11.4 MiB (0%)
  449. Language                                 : Lithuanian
  450. Default                                  : No
  451. Forced                                   : No
  452. Original source medium                   : Blu-ray

  453. Text #25
  454. ID                                       : 29
  455. ID in the original source medium         : 4788 (0x12B4)
  456. Format                                   : PGS
  457. Muxing mode                              : zlib
  458. Codec ID                                 : S_HDMV/PGS
  459. Codec ID/Info                            : Picture based subtitle format used on BDs/HD-DVDs
  460. Duration                                 : 1 h 27 min
  461. Bit rate                                 : 16.6 kb/s
  462. Count of elements                        : 1347
  463. Stream size                              : 10.4 MiB (0%)
  464. Language                                 : Norwegian
  465. Default                                  : No
  466. Forced                                   : No
  467. Original source medium                   : Blu-ray

  468. Text #26
  469. ID                                       : 30
  470. ID in the original source medium         : 4789 (0x12B5)
  471. Format                                   : PGS
  472. Muxing mode                              : zlib
  473. Codec ID                                 : S_HDMV/PGS
  474. Codec ID/Info                            : Picture based subtitle format used on BDs/HD-DVDs
  475. Duration                                 : 1 h 17 min
  476. Bit rate                                 : 17.3 kb/s
  477. Count of elements                        : 1379
  478. Stream size                              : 9.64 MiB (0%)
  479. Language                                 : Polish
  480. Default                                  : No
  481. Forced                                   : No
  482. Original source medium                   : Blu-ray

  483. Text #27
  484. ID                                       : 31
  485. ID in the original source medium         : 4790 (0x12B6)
  486. Format                                   : PGS
  487. Muxing mode                              : zlib
  488. Codec ID                                 : S_HDMV/PGS
  489. Codec ID/Info                            : Picture based subtitle format used on BDs/HD-DVDs
  490. Duration                                 : 1 h 27 min
  491. Bit rate                                 : 18.4 kb/s
  492. Count of elements                        : 1463
  493. Stream size                              : 11.6 MiB (0%)
  494. Language                                 : Romanian
  495. Default                                  : No
  496. Forced                                   : No
  497. Original source medium                   : Blu-ray

  498. Text #28
  499. ID                                       : 32
  500. ID in the original source medium         : 4791 (0x12B7)
  501. Format                                   : PGS
  502. Muxing mode                              : zlib
  503. Codec ID                                 : S_HDMV/PGS
  504. Codec ID/Info                            : Picture based subtitle format used on BDs/HD-DVDs
  505. Duration                                 : 1 h 19 min
  506. Bit rate                                 : 19.3 kb/s
  507. Count of elements                        : 1469
  508. Stream size                              : 10.9 MiB (0%)
  509. Language                                 : Russian
  510. Default                                  : No
  511. Forced                                   : No
  512. Original source medium                   : Blu-ray

  513. Text #29
  514. ID                                       : 33
  515. ID in the original source medium         : 4792 (0x12B8)
  516. Format                                   : PGS
  517. Muxing mode                              : zlib
  518. Codec ID                                 : S_HDMV/PGS
  519. Codec ID/Info                            : Picture based subtitle format used on BDs/HD-DVDs
  520. Duration                                 : 1 h 27 min
  521. Bit rate                                 : 17.0 kb/s
  522. Count of elements                        : 1480
  523. Stream size                              : 10.7 MiB (0%)
  524. Language                                 : Slovak
  525. Default                                  : No
  526. Forced                                   : No
  527. Original source medium                   : Blu-ray

  528. Text #30
  529. ID                                       : 34
  530. ID in the original source medium         : 4793 (0x12B9)
  531. Format                                   : PGS
  532. Muxing mode                              : zlib
  533. Codec ID                                 : S_HDMV/PGS
  534. Codec ID/Info                            : Picture based subtitle format used on BDs/HD-DVDs
  535. Duration                                 : 1 h 27 min
  536. Bit rate                                 : 16.0 kb/s
  537. Count of elements                        : 1394
  538. Stream size                              : 10.1 MiB (0%)
  539. Language                                 : Spanish
  540. Default                                  : No
  541. Forced                                   : No
  542. Original source medium                   : Blu-ray

  543. Text #31
  544. ID                                       : 35
  545. ID in the original source medium         : 4793 (0x12B9)
  546. Format                                   : PGS
  547. Muxing mode                              : zlib
  548. Codec ID                                 : S_HDMV/PGS
  549. Codec ID/Info                            : Picture based subtitle format used on BDs/HD-DVDs
  550. Duration                                 : 56 min 27 s
  551. Bit rate                                 : 240 b/s
  552. Count of elements                        : 14
  553. Stream size                              : 99.5 KiB (0%)
  554. Language                                 : Spanish
  555. Default                                  : No
  556. Forced                                   : No
  557. Original source medium                   : Blu-ray

  558. Text #32
  559. ID                                       : 36
  560. ID in the original source medium         : 4794 (0x12BA)
  561. Format                                   : PGS
  562. Muxing mode                              : zlib
  563. Codec ID                                 : S_HDMV/PGS
  564. Codec ID/Info                            : Picture based subtitle format used on BDs/HD-DVDs
  565. Duration                                 : 1 h 27 min
  566. Bit rate                                 : 17.7 kb/s
  567. Count of elements                        : 1437
  568. Stream size                              : 11.1 MiB (0%)
  569. Language                                 : Spanish
  570. Default                                  : No
  571. Forced                                   : No
  572. Original source medium                   : Blu-ray

  573. Text #33
  574. ID                                       : 37
  575. ID in the original source medium         : 4794 (0x12BA)
  576. Format                                   : PGS
  577. Muxing mode                              : zlib
  578. Codec ID                                 : S_HDMV/PGS
  579. Codec ID/Info                            : Picture based subtitle format used on BDs/HD-DVDs
  580. Duration                                 : 56 min 27 s
  581. Bit rate                                 : 265 b/s
  582. Count of elements                        : 14
  583. Stream size                              : 110 KiB (0%)
  584. Language                                 : Spanish
  585. Default                                  : No
  586. Forced                                   : No
  587. Original source medium                   : Blu-ray

  588. Text #34
  589. ID                                       : 38
  590. ID in the original source medium         : 4795 (0x12BB)
  591. Format                                   : PGS
  592. Muxing mode                              : zlib
  593. Codec ID                                 : S_HDMV/PGS
  594. Codec ID/Info                            : Picture based subtitle format used on BDs/HD-DVDs
  595. Duration                                 : 1 h 27 min
  596. Bit rate                                 : 14.7 kb/s
  597. Count of elements                        : 1362
  598. Stream size                              : 9.22 MiB (0%)
  599. Language                                 : Swedish
  600. Default                                  : No
  601. Forced                                   : No
  602. Original source medium                   : Blu-ray

  603. Text #35
  604. ID                                       : 39
  605. ID in the original source medium         : 4796 (0x12BC)
  606. Format                                   : PGS
  607. Muxing mode                              : zlib
  608. Codec ID                                 : S_HDMV/PGS
  609. Codec ID/Info                            : Picture based subtitle format used on BDs/HD-DVDs
  610. Duration                                 : 1 h 27 min
  611. Bit rate                                 : 17.0 kb/s
  612. Count of elements                        : 1448
  613. Stream size                              : 10.7 MiB (0%)
  614. Language                                 : Thai
  615. Default                                  : No
  616. Forced                                   : No
  617. Original source medium                   : Blu-ray

  618. Text #36
  619. ID                                       : 40
  620. ID in the original source medium         : 4797 (0x12BD)
  621. Format                                   : PGS
  622. Muxing mode                              : zlib
  623. Codec ID                                 : S_HDMV/PGS
  624. Codec ID/Info                            : Picture based subtitle format used on BDs/HD-DVDs
  625. Duration                                 : 1 h 17 min
  626. Bit rate                                 : 19.7 kb/s
  627. Count of elements                        : 1436
  628. Stream size                              : 11.0 MiB (0%)
  629. Language                                 : Turkish
  630. Default                                  : No
  631. Forced                                   : No
  632. Original source medium                   : Blu-ray

  633. Text #37
  634. ID                                       : 41
  635. ID in the original source medium         : 4798 (0x12BE)
  636. Format                                   : PGS
  637. Muxing mode                              : zlib
  638. Codec ID                                 : S_HDMV/PGS
  639. Codec ID/Info                            : Picture based subtitle format used on BDs/HD-DVDs
  640. Duration                                 : 57 min 35 s
  641. Bit rate                                 : 399 b/s
  642. Count of elements                        : 20
  643. Stream size                              : 168 KiB (0%)
  644. Language                                 : French
  645. Default                                  : No
  646. Forced                                   : No
  647. Original source medium                   : Blu-ray

  648. Menu
  649. 00:00:00.000                             : en:Chapter 01
  650. 00:04:25.056                             : en:Chapter 02
  651. 00:08:03.399                             : en:Chapter 03
  652. 00:16:19.103                             : en:Chapter 04
  653. 00:21:17.234                             : en:Chapter 05
  654. 00:24:48.695                             : en:Chapter 06
  655. 00:30:28.785                             : en:Chapter 07
  656. 00:35:32.505                             : en:Chapter 08
  657. 00:40:03.943                             : en:Chapter 09
  658. 00:45:25.889                             : en:Chapter 10
  659. 00:52:41.116                             : en:Chapter 11
  660. 00:57:20.437                             : en:Chapter 12
  661. 01:02:52.935                             : en:Chapter 13
  662. 01:07:42.725                             : en:Chapter 14
  663. 01:12:17.499                             : en:Chapter 15
  664. 01:16:40.220                             : en:Chapter 16
复制代码












                                       
                                       

                                       
                                       
                                       





回复

使用道具 举报

蓝光币
363
发表于 2021-10-29 08:00:39 | 显示全部楼层

其实我一直觉得楼主的品味不错!呵呵!蓝光电影网太棒了!
回复 支持 反对

使用道具 举报

蓝光币
51
发表于 2021-10-29 08:10:09 | 显示全部楼层
谢谢楼主分享,辛苦
回复 支持 反对

使用道具 举报

蓝光币
86
发表于 2021-10-29 08:45:20 | 显示全部楼层

其实我一直觉得楼主的品味不错!呵呵!蓝光电影网太棒了!
回复 支持 反对

使用道具 举报

蓝光币
91
发表于 2021-10-29 09:05:32 | 显示全部楼层
楼主发贴辛苦了,谢谢楼主分享!我觉得蓝光电影网是注册对了!
回复 支持 反对

使用道具 举报

蓝光币
16
发表于 2021-10-29 12:28:02 | 显示全部楼层

楼主太厉害了!楼主,电影应该很好看我觉得蓝光电影网真是个好地方!
回复 支持 反对

使用道具 举报

蓝光币
71
发表于 2021-11-1 09:08:57 | 显示全部楼层

楼主发贴辛苦了,谢谢楼主分享
回复 支持 反对

使用道具 举报

懒得打字嘛,点击右侧快捷回复 【右侧内容,后台自定义】
您需要登录后才可以回帖 登录 | 立即加入

本版积分规则

Archiver|小黑屋| 蓝光电影网 |网站地图

Copyright © 2021 Comsenz Inc. Powered by 蓝光电影网

蓝光电影网

本站内容由用户自主分享和转载自互联网,转载目的在于传递更多信息,并不代表本网赞同其观点和对其真实性负责。

如有侵权、违反国家法律政策行为,请联系我们,我们会第一时间及时清除和处理!

举报反馈邮箱:[email protected]

快速回复 返回顶部 返回列表