找回密码

蓝光电影网

查看: 273|回复: 0

[2160p-WEB] 迷镇凶案/坚离地死人劫案 Suburbicon.2017.2160p.WEB-DL.DD5.1.DV.MP4.x265-TEPES 11.02GB

[复制链接]
蓝光币
730
发表于 2021-10-29 00:18:46 | 显示全部楼层 |阅读模式


◎译  名 迷镇凶案/坚离地死人劫案(港)/完善社区谋杀案(台)/小镇郊区/迷镇
◎片  名 Suburbicon
◎年  代 2017
◎产  地 美国,英国
◎类  别 笑剧 / 悬疑 / 犯罪
◎语  言 英语
◎上映日期 2017-09-02(威尼斯电影节) / 2017-10-27(美国) / 2018-01-12(中国大陆)
◎豆瓣评分 6.2/10 from 22026 users
◎豆瓣链接 https://movie.douban.com/subject/2133433/
◎片  长 104分钟
◎导  演 乔治·克鲁尼 George Clooney
◎编  剧 乔尔·科恩 Joel Coen / 伊桑·科恩 Ethan Coen / 乔治·克鲁尼 George Clooney / 格兰特·赫斯洛夫 Grant Heslov
◎主  演 马特·达蒙 Matt Damon
       朱丽安·摩尔 Julianne Moore
       奥斯卡·伊萨克 Oscar Isaac
       诺亚·尤佩 Noah Jupe
       托尼·埃斯皮诺萨 Tony Espinosa
       格伦·弗莱舍尔 Glenn Fleshler
       梅根·弗格森 Megan Ferguson
       杰克·康利 Jack Conley
       迈克尔·D·科恩 Michael D. Cohen
       黛安·德恩 Diane Dehn
       盖里·巴萨拉巴 Gary Basaraba
       斯蒂夫·蒙罗埃 Steve Monroe
       阿历克斯·哈赛尔 Alex Hassell
       利斯·M·伯克 Leith M. Burke
       克里麦·威斯特博克 Karimah Westbrook
       霍普·班克斯 Hope Banks
       罗伯特·皮尔斯 Robert Pierce
       文斯·切法卢 Vince Cefalu
       达什·威廉姆斯 Dash Williams
       加文·怀尔德 Gavin Wilde
       兰登·戈登 Landon Gordon
       蒂姆·聂夫 Tim Neff
       马拉·费尔克拉夫 Marah Fairclough
       艾米丽·高斯 Emily Goss
       艾瑞克·奥德 Erik Aude
       布拉迪·艾伦 Brady Allen
◎标  签 犯罪 | 美国 | 黑色诙谐 | 悬疑 | 人性 | 剧情 | 2017 | 笑剧
◎简  介


  20世纪50年月寂静的故乡小镇,中年男人加德纳(马特·达蒙 饰)的妻子在家中被杀戮。由此安好的生活被打破,激发出连续串勒索、骗保、迷情事务。而劈面邻人搬来了一家黑人,又是以打破了全部小镇的安好。家庭危机和小镇危机交织在了一路……
◎获奖情况
  第74届威尼斯电影节 ?(2017)
  主比赛单元金狮奖(提名) 乔治·克鲁尼
  1. Video
  2. ID                                       : 1
  3. Format                                   : HEVC
  4. Format/Info                              : High Efficiency Video Coding
  5. Format profile                           : Main [email protected]@High
  6. HDR format                               : Dolby Vision, Version 1.0, dvhe.05.06, BL+RPU
  7. Codec ID                                 : dvhe
  8. Codec ID/Info                            : High Efficiency Video Coding with Dolby Vision
  9. Duration                                 : 1 h 45 min
  10. Bit rate                                 : 14.6 Mb/s
  11. Width                                    : 3 840 pixels
  12. Height                                   : 2 160 pixels
  13. Display aspect ratio                     : 16:9
  14. Frame rate mode                          : Constant
  15. Frame rate                               : 23.976 (24000/1001/189150) FPS
  16. Color space                              : YUV
  17. Chroma subsampling                       : 4:2:0 (Type 0)
  18. Bit depth                                : 10 bits
  19. Bits/(Pixel*Frame)                       : 0.074
  20. Stream size                              : 10.7 GiB (97%)
  21. Default                                  : Yes
  22. Alternate group                          : 1
  23. Encoded date                             : UTC 2021-10-26 19:33:10
  24. Tagged date                              : UTC 2021-10-26 19:35:10
  25. Color range                              : Full
  26. Codec configuration box                  : hvcC+dvcC

  27. Audio
  28. ID                                       : 2
  29. Format                                   : AC-3
  30. Format/Info                              : Audio Coding 3
  31. Commercial name                          : Dolby Digital
  32. Codec ID                                 : ac-3
  33. Duration                                 : 1 h 45 min
  34. Bit rate mode                            : Constant
  35. Bit rate                                 : 384 kb/s
  36. Maximum bit rate                         : 406 kb/s
  37. Channel(s)                               : 6 channels
  38. Channel layout                           : L R C LFE Ls Rs
  39. Sampling rate                            : 48.0 kHz
  40. Frame rate                               : 31.250 FPS (1536 SPF)
  41. Compression mode                         : Lossy
  42. Stream size                              : 288 MiB (3%)
  43. Language                                 : English
  44. Service kind                             : Complete Main
  45. Encoded date                             : UTC 2021-10-26 19:33:00
  46. Tagged date                              : UTC 2021-10-26 19:35:10

  47. Text
  48. ID                                       : 3
  49. Format                                   : Timed Text
  50. Codec ID                                 : tx3g
  51. Duration                                 : 1 h 35 min
  52. Bit rate mode                            : Variable
  53. Bit rate                                 : 62 b/s
  54. Stream size                              : 43.5 KiB (0%)
  55. Language                                 : English
  56. Forced                                   : No
  57. Encoded date                             : UTC 2021-10-26 19:35:10
  58. Tagged date                              : UTC 2021-10-26 19:35:10
复制代码




                                       
                                       

                                       
                                       
                                       




回复

使用道具 举报

懒得打字嘛,点击右侧快捷回复 【右侧内容,后台自定义】
您需要登录后才可以回帖 登录 | 立即加入

本版积分规则

Archiver|小黑屋| 蓝光电影网 |网站地图

Copyright © 2021 Comsenz Inc. Powered by 蓝光电影网

蓝光电影网

本站内容由用户自主分享和转载自互联网,转载目的在于传递更多信息,并不代表本网赞同其观点和对其真实性负责。

如有侵权、违反国家法律政策行为,请联系我们,我们会第一时间及时清除和处理!

举报反馈邮箱:[email protected]

快速回复 返回顶部 返回列表