找回密码

蓝光电影网

查看: 594|回复: 4

[10bit.HDR] X特遣队:全员集结 The.Suicide.Squad.2021.2160p.UHD.BluRay.x265.10bit.HDR.TrueHD.7.1.Atmos-B0MBARDiERS 25.68GB

[复制链接]
蓝光币
733
发表于 2021-10-29 00:12:31 | 显示全部楼层 |阅读模式


◎译  名 X特遣队:全员集结/Suicide Squad 2/X特遣队2/新自杀小队/自杀小队2/自杀特攻(港)/自杀突击队2/自杀突击队集结(台)
◎片  名 The Suicide Squad
◎年  代 2021
◎产  地 美国,加拿大,英国
◎类  别 笑剧 / 行动 / 科幻 / 冒险
◎语  言 英语,西班牙语
◎上映日期 2021-07-28(法国) / 2021-08-06(美国)
◎豆瓣评分 8.0/10 from 169689 users
◎豆瓣链接 https://movie.douban.com/subject/26741632/
◎片  长 132分钟
◎导  演 詹姆斯·古恩 James Gunn
◎编  剧 詹姆斯·古恩 James Gunn / 约翰·奥斯特兰德 John Ostrander
◎主  演 玛格特·罗比 Margot Robbie
       伊德里斯·艾尔巴 Idris Elba
       约翰·塞纳 John Cena
       乔尔·金纳曼 Joel Kinnaman
       西尔维斯特·史泰龙 Sylvester Stallone
       维奥拉·戴维斯 Viola Davis
       大卫·达斯马齐连 David Dastmalchian
       迈克尔·鲁克 Michael Rooker
       杰·科特尼 Jai Courtney
       彼得·卡帕尔迪 Peter Capaldi
       艾莉丝·布拉加 Alice Braga
       皮特·戴维森 Pete Davidson
       华金·科西奥 Joaquín Cosio
       胡安·迭戈·博托 Juan Diego Botto
       斯托姆·瑞德 Storm Reid
       内森·菲利安 Nathan Fillion
       塔伊加·维迪提 Taika Waititi
       史蒂夫·阿吉 Steve Agee
       肖恩·古恩 Sean Gunn
       弗卢拉·博格 Flula Borg
       约翰·奥斯特兰德 John Ostrander
       黄美玲 Mayling Ng
       丹妮拉·曼希沃 Daniela Melchior
       史蒂芬·布莱克哈特 Stephen Blackehart
       詹尼佛·霍兰德 Jennifer Holland
       迪·布拉雷·贝克尔 Dee Bradley Baker
       雷·埃尔南德斯 Rey Hernandez
       雷纳尔多·法伯勒 Reinaldo Faberlle
       乔希·文图拉 Josh Ventura
       Gerardo Davila Gerardo Davila
       米凯拉·霍沃 Mikaela Hoover
       林恩·阿什 Lynne Ashe
       安德里娅·安德拉德 Andrea Andrade
       兰德尔·P·海文斯 Randall P. Havens
       迈克尔·艾伦·米利甘 Michael Aaron Milligan
       特伦斯·罗斯摩尔 Terence Rosemore
       娜塔莉·萨福兰 Natalia Safran
       詹姆斯·威廉·巴拉德 James William Ballard
       蒂莫西·卡尔 Timothy Carr
       玛丽索尔·科雷亚 Marisol Correa
       约翰·盖蒂尔 John Gettier
       麦克斯威尔·海史姑娘 Maxwell Highsmith
       洛伊德·考夫曼 Lloyd Kaufman
       迪索·拉莫斯 Diezel Ramos
       弗雷迪·史卓玛 Freddie Stroma
       维多利亚·佩吉·沃特金斯 Victoria Paige Watkins
◎标  签 DC | 美国 | 科幻 | 漫画改编 | 行动 | 犯罪 | 笑剧 | 2021
◎简  介


  关押在美梦牢狱的X特遣队成员获得一项可以减轻科罚的新使命,前往南美洲的科托马耳他岛国,摧毁纳粹期间遗留的约顿海姆牢狱和尝试室,它当前用于关押该国的政治犯并实施人体尝试。履利用命时代,X特遣队遭受巨型外星生物海星斯塔罗,并与它发生抵触。

  1. Video
  2. ID : 1
  3. Format : HEVC
  4. Format/Info : High Efficiency Video Coding
  5. Format profile : Main [email protected]@High
  6. HDR format : SMPTE ST 2086, HDR10 compatible
  7. Codec ID : V_MPEGH/ISO/HEVC
  8. Duration : 2 h 12 min
  9. Bit rate : 23.4 Mb/s
  10. Width : 3 840 pixels
  11. Height : 2 024 pixels
  12. Display aspect ratio : 1.897
  13. Frame rate mode : Constant
  14. Frame rate : 23.976 (24000/1001) FPS
  15. Color space : YUV
  16. Chroma subsampling : 4:2:0 (Type 2)
  17. Bit depth : 10 bits
  18. Bits/(Pixel*Frame) : 0.126
  19. Stream size : 21.6 GiB (85%)
  20. Writing library : x265 3.5+19-8003e4382:[Windows][GCC 11.2.0][64 bit] 10bit
  21. Encoding settings : cpuid=1176575 / frame-threads=6 / numa-pools=36 / wpp / no-pmode / no-pme / no-psnr / no-ssim / log-level=2 / input-csp=1 / input-res=3840x2024 / interlace=0 / total-frames=190056 / level-idc=51 / high-tier=1 / uhd-bd=0 / ref=4 / no-allow-non-conformance / repeat-headers / annexb / aud / no-eob / no-eos / hrd / info / hash=0 / no-temporal-layers / open-gop / min-keyint=23 / keyint=250 / gop-lookahead=0 / bframes=4 / b-adapt=2 / b-pyramid / bframe-bias=0 / rc-lookahead=25 / lookahead-slices=4 / scenecut=40 / no-hist-scenecut / radl=0 / no-splice / no-intra-refresh / ctu=64 / min-cu-size=8 / rect / no-amp / max-tu-size=32 / tu-inter-depth=1 / tu-intra-depth=1 / limit-tu=0 / rdoq-level=2 / dynamic-rd=0.00 / no-ssim-rd / signhide / no-tskip / nr-intra=0 / nr-inter=0 / no-constrained-intra / strong-intra-smoothing / max-merge=3 / limit-refs=3 / limit-modes / me=3 / subme=3 / merange=57 / temporal-mvp / no-frame-dup / no-hme / weightp / no-weightb / no-analyze-src-pics / deblock=-3:-3 / no-sao / no-sao-non-deblock / rd=4 / selective-sao=0 / no-early-skip / rskip / no-fast-intra / no-tskip-fast / no-cu-lossless / no-b-intra / no-splitrd-skip / rdpenalty=0 / psy-rd=2.00 / psy-rdoq=1.00 / no-rd-refine / no-lossless / cbqpoffs=0 / crqpoffs=0 / rc=crf / crf=14.0 / qcomp=0.60 / qpstep=4 / stats-write=0 / stats-read=0 / vbv-maxrate=160000 / vbv-bufsize=160000 / vbv-init=0.9 / min-vbv-fullness=50.0 / max-vbv-fullness=80.0 / crf-max=0.0 / crf-min=0.0 / ipratio=1.40 / pbratio=1.30 / aq-mode=2 / aq-strength=1.00 / cutree / zone-count=0 / no-strict-cbr / qg-size=32 / no-rc-grain / qpmax=69 / qpmin=0 / no-const-vbv / sar=1 / overscan=0 / videoformat=5 / range=0 / colorprim=9 / transfer=16 / colormatrix=9 / chromaloc=1 / chromaloc-top=2 / chromaloc-bottom=2 / display-window=0 / master-display=G(13250,34500)B(7500,3000)R(34000,16000)WP(15635,16450)L(10000000,1) / cll=571,257 / min-luma=0 / max-luma=1023 / log2-max-poc-lsb=8 / vui-timing-info / vui-hrd-info / slices=1 / no-opt-qp-pps / no-opt-ref-list-length-pps / no-multi-pass-opt-rps / scenecut-bias=0.05 / hist-threshold=0.03 / no-opt-cu-delta-qp / no-aq-motion / hdr10 / hdr10-opt / no-dhdr10-opt / no-idr-recovery-sei / analysis-reuse-level=0 / analysis-save-reuse-level=0 / analysis-load-reuse-level=0 / scale-factor=0 / refine-intra=0 / refine-inter=0 / refine-mv=1 / refine-ctu-distortion=0 / no-limit-sao / ctu-info=0 / no-lowpass-dct / refine-analysis-type=0 / copy-pic=1 / max-ausize-factor=1.0 / no-dynamic-refine / no-single-sei / no-hevc-aq / no-svt / no-field / qp-adaptation-range=1.00 / scenecut-aware-qp=0conformance-window-offsets / right=0 / bottom=0 / decoder-max-rate=0 / no-vbv-live-multi-pass
  22. Default : Yes
  23. Forced : No
  24. Color range : Limited
  25. Color primaries : BT.2020
  26. Transfer characteristics : PQ
  27. Matrix coefficients : BT.2020 non-constant
  28. Mastering display color primaries : Display P3
  29. Mastering display luminance : min: 0.0001 cd/m2, max: 1000 cd/m2
  30. Maximum Content Light Level : 571 cd/m2
  31. Maximum Frame-Average Light Level : 257 cd/m2

  32. Audio #1
  33. ID : 2
  34. Format : MLP FBA 16-ch
  35. Format/Info : Meridian Lossless Packing FBA with 16-channel presentation
  36. Commercial name : Dolby TrueHD with Dolby Atmos
  37. Codec ID : A_TRUEHD
  38. Duration : 2 h 12 min
  39. Bit rate mode : Variable
  40. Bit rate : 3 455 kb/s
  41. Maximum bit rate : 5 478 kb/s
  42. Channel(s) : 8 channels
  43. Channel layout : L R C LFE Ls Rs Lb Rb
  44. Sampling rate : 48.0 kHz
  45. Frame rate : 1 200.000 FPS (40 SPF)
  46. Compression mode : Lossless
  47. Stream size : 3.19 GiB (13%)
  48. Language : English
  49. Default : Yes
  50. Forced : No
  51. Number of dynamic objects : 11
  52. Bed channel count : 1 channel
  53. Bed channel configuration : LFE

  54. Audio #2
  55. ID : 3
  56. Format : AC-3
  57. Format/Info : Audio Coding 3
  58. Commercial name : Dolby Digital
  59. Format settings : Dolby Surround EX
  60. Codec ID : A_AC3
  61. Duration : 2 h 12 min
  62. Bit rate mode : Constant
  63. Bit rate : 448 kb/s
  64. Channel(s) : 6 channels
  65. Channel layout : L R C LFE Ls Rs
  66. Sampling rate : 48.0 kHz
  67. Frame rate : 31.250 FPS (1536 SPF)
  68. Compression mode : Lossy
  69. Stream size : 423 MiB (2%)
  70. Language : English
  71. Service kind : Complete Main
  72. Default : Yes
  73. Forced : No

  74. Audio #3
  75. ID : 4
  76. Format : AAC LC
  77. Format/Info : Advanced Audio Codec Low Complexity
  78. Codec ID : A_AAC-2
  79. Duration : 2 h 12 min
  80. Bit rate : 107 kb/s
  81. Channel(s) : 2 channels
  82. Channel layout : L R
  83. Sampling rate : 48.0 kHz
  84. Frame rate : 46.875 FPS (1024 SPF)
  85. Compression mode : Lossy
  86. Delay relative to video : 9 ms
  87. Stream size : 101 MiB (0%)
  88. Title : Commentary
  89. Language : English
  90. Default : Yes
  91. Forced : No

  92. Text #1
  93. ID : 5
  94. Format : PGS
  95. Muxing mode : zlib
  96. Codec ID : S_HDMV/PGS
  97. Codec ID/Info : Picture based subtitle format used on BDs/HD-DVDs
  98. Duration : 2 h 11 min
  99. Bit rate : 36.5 kb/s
  100. Count of elements : 3892
  101. Stream size : 34.4 MiB (0%)
  102. Title : English SDH
  103. Language : English
  104. Default : No
  105. Forced : No

  106. Text #2
  107. ID : 6
  108. Format : PGS
  109. Muxing mode : zlib
  110. Codec ID : S_HDMV/PGS
  111. Codec ID/Info : Picture based subtitle format used on BDs/HD-DVDs
  112. Duration : 2 h 11 min
  113. Bit rate : 21.0 kb/s
  114. Count of elements : 2530
  115. Stream size : 19.8 MiB (0%)
  116. Title : French
  117. Language : French
  118. Default : No
  119. Forced : No

  120. Text #3
  121. ID : 7
  122. Format : PGS
  123. Muxing mode : zlib
  124. Codec ID : S_HDMV/PGS
  125. Codec ID/Info : Picture based subtitle format used on BDs/HD-DVDs
  126. Duration : 2 h 11 min
  127. Bit rate : 31.4 kb/s
  128. Count of elements : 3756
  129. Stream size : 29.5 MiB (0%)
  130. Title : Italian
  131. Language : Italian
  132. Default : No
  133. Forced : No

  134. Text #4
  135. ID : 8
  136. Format : PGS
  137. Muxing mode : zlib
  138. Codec ID : S_HDMV/PGS
  139. Codec ID/Info : Picture based subtitle format used on BDs/HD-DVDs
  140. Duration : 2 h 9 min
  141. Bit rate : 22.4 kb/s
  142. Count of elements : 2362
  143. Stream size : 20.9 MiB (0%)
  144. Title : Spanish
  145. Language : Spanish
  146. Default : No
  147. Forced : No

  148. Text #5
  149. ID : 9
  150. Format : PGS
  151. Muxing mode : zlib
  152. Codec ID : S_HDMV/PGS
  153. Codec ID/Info : Picture based subtitle format used on BDs/HD-DVDs
  154. Duration : 2 h 9 min
  155. Bit rate : 24.0 kb/s
  156. Count of elements : 2408
  157. Stream size : 22.3 MiB (0%)
  158. Title : Spanish
  159. Language : Spanish
  160. Default : No
  161. Forced : No

  162. Text #6
  163. ID : 10
  164. Format : PGS
  165. Muxing mode : zlib
  166. Codec ID : S_HDMV/PGS
  167. Codec ID/Info : Picture based subtitle format used on BDs/HD-DVDs
  168. Duration : 2 h 9 min
  169. Bit rate : 20.7 kb/s
  170. Count of elements : 1742
  171. Stream size : 19.2 MiB (0%)
  172. Title : Danish
  173. Language : Danish
  174. Default : No
  175. Forced : No

  176. Text #7
  177. ID : 11
  178. Format : PGS
  179. Muxing mode : zlib
  180. Codec ID : S_HDMV/PGS
  181. Codec ID/Info : Picture based subtitle format used on BDs/HD-DVDs
  182. Duration : 2 h 9 min
  183. Bit rate : 25.9 kb/s
  184. Count of elements : 2638
  185. Stream size : 24.0 MiB (0%)
  186. Title : Finnish
  187. Language : Finnish
  188. Default : No
  189. Forced : No

  190. Text #8
  191. ID : 12
  192. Format : PGS
  193. Muxing mode : zlib
  194. Codec ID : S_HDMV/PGS
  195. Codec ID/Info : Picture based subtitle format used on BDs/HD-DVDs
  196. Duration : 2 h 9 min
  197. Bit rate : 24.2 kb/s
  198. Count of elements : 2572
  199. Stream size : 22.4 MiB (0%)
  200. Title : Greek
  201. Language : Greek
  202. Default : No
  203. Forced : No

  204. Text #9
  205. ID : 13
  206. Format : PGS
  207. Muxing mode : zlib
  208. Codec ID : S_HDMV/PGS
  209. Codec ID/Info : Picture based subtitle format used on BDs/HD-DVDs
  210. Duration : 2 h 9 min
  211. Bit rate : 25.9 kb/s
  212. Count of elements : 2644
  213. Stream size : 24.0 MiB (0%)
  214. Title : Hungarian
  215. Language : Hungarian
  216. Default : No
  217. Forced : No

  218. Text #10
  219. ID : 14
  220. Format : PGS
  221. Muxing mode : zlib
  222. Codec ID : S_HDMV/PGS
  223. Codec ID/Info : Picture based subtitle format used on BDs/HD-DVDs
  224. Duration : 2 h 9 min
  225. Bit rate : 22.2 kb/s
  226. Count of elements : 2048
  227. Stream size : 20.7 MiB (0%)
  228. Title : Norwegian
  229. Language : Norwegian
  230. Default : No
  231. Forced : No

  232. Text #11
  233. ID : 15
  234. Format : PGS
  235. Muxing mode : zlib
  236. Codec ID : S_HDMV/PGS
  237. Codec ID/Info : Picture based subtitle format used on BDs/HD-DVDs
  238. Duration : 2 h 9 min
  239. Bit rate : 21.4 kb/s
  240. Count of elements : 2534
  241. Stream size : 19.8 MiB (0%)
  242. Title : Polish
  243. Language : Polish
  244. Default : No
  245. Forced : No

  246. Text #12
  247. ID : 16
  248. Format : PGS
  249. Muxing mode : zlib
  250. Codec ID : S_HDMV/PGS
  251. Codec ID/Info : Picture based subtitle format used on BDs/HD-DVDs
  252. Duration : 2 h 9 min
  253. Bit rate : 23.7 kb/s
  254. Count of elements : 2476
  255. Stream size : 22.0 MiB (0%)
  256. Title : Romanian
  257. Language : Romanian
  258. Default : No
  259. Forced : No

  260. Text #13
  261. ID : 17
  262. Format : PGS
  263. Muxing mode : zlib
  264. Codec ID : S_HDMV/PGS
  265. Codec ID/Info : Picture based subtitle format used on BDs/HD-DVDs
  266. Duration : 2 h 9 min
  267. Bit rate : 20.4 kb/s
  268. Count of elements : 1938
  269. Stream size : 18.9 MiB (0%)
  270. Title : Swedish
  271. Language : Swedish
  272. Default : No
  273. Forced : No

  274. Text #14
  275. ID : 18
  276. Format : PGS
  277. Muxing mode : zlib
  278. Codec ID : S_HDMV/PGS
  279. Codec ID/Info : Picture based subtitle format used on BDs/HD-DVDs
  280. Duration : 2 h 4 min
  281. Bit rate : 1 870 b/s
  282. Count of elements : 200
  283. Stream size : 1.67 MiB (0%)
  284. Title : French
  285. Language : French
  286. Default : No
  287. Forced : No

  288. Text #15
  289. ID : 19
  290. Format : PGS
  291. Muxing mode : zlib
  292. Codec ID : S_HDMV/PGS
  293. Codec ID/Info : Picture based subtitle format used on BDs/HD-DVDs
  294. Duration : 2 h 5 min
  295. Bit rate : 1 777 b/s
  296. Count of elements : 216
  297. Stream size : 1.59 MiB (0%)
  298. Title : Italian
  299. Language : Italian
  300. Default : No
  301. Forced : No

  302. Text #16
  303. ID : 20
  304. Format : PGS
  305. Muxing mode : zlib
  306. Codec ID : S_HDMV/PGS
  307. Codec ID/Info : Picture based subtitle format used on BDs/HD-DVDs
  308. Duration : 2 h 10 min
  309. Bit rate : 231 b/s
  310. Count of elements : 40
  311. Stream size : 222 KiB (0%)
  312. Title : Spanish
  313. Language : Spanish
  314. Default : No
  315. Forced : No

  316. Text #17
  317. ID : 21
  318. Format : PGS
  319. Muxing mode : zlib
  320. Codec ID : S_HDMV/PGS
  321. Codec ID/Info : Picture based subtitle format used on BDs/HD-DVDs
  322. Duration : 2 h 4 min
  323. Bit rate : 423 b/s
  324. Count of elements : 50
  325. Stream size : 387 KiB (0%)
  326. Title : Spanish
  327. Language : Spanish
  328. Default : No
  329. Forced : No

  330. Text #18
  331. ID : 22
  332. Format : PGS
  333. Muxing mode : zlib
  334. Codec ID : S_HDMV/PGS
  335. Codec ID/Info : Picture based subtitle format used on BDs/HD-DVDs
  336. Duration : 2 h 5 min
  337. Bit rate : 1 387 b/s
  338. Count of elements : 220
  339. Stream size : 1.24 MiB (0%)
  340. Title : Hindi
  341. Language : Hindi
  342. Default : No
  343. Forced : No

  344. Text #19
  345. ID : 23
  346. Format : PGS
  347. Muxing mode : zlib
  348. Codec ID : S_HDMV/PGS
  349. Codec ID/Info : Picture based subtitle format used on BDs/HD-DVDs
  350. Duration : 2 h 5 min
  351. Bit rate : 2 503 b/s
  352. Count of elements : 220
  353. Stream size : 2.24 MiB (0%)
  354. Title : Tamil
  355. Language : Tamil
  356. Default : No
  357. Forced : No

  358. Text #20
  359. ID : 24
  360. Format : PGS
  361. Muxing mode : zlib
  362. Codec ID : S_HDMV/PGS
  363. Codec ID/Info : Picture based subtitle format used on BDs/HD-DVDs
  364. Duration : 2 h 5 min
  365. Bit rate : 1 700 b/s
  366. Count of elements : 220
  367. Stream size : 1.52 MiB (0%)
  368. Title : Telugu
  369. Language : Telugu
  370. Default : No
  371. Forced : No

  372. Text #21
  373. ID : 25
  374. Format : PGS
  375. Muxing mode : zlib
  376. Codec ID : S_HDMV/PGS
  377. Codec ID/Info : Picture based subtitle format used on BDs/HD-DVDs
  378. Duration : 2 h 4 min
  379. Bit rate : 1 868 b/s
  380. Count of elements : 212
  381. Stream size : 1.67 MiB (0%)
  382. Title : Hungarian
  383. Language : Hungarian
  384. Default : No
  385. Forced : No

  386. Menu
  387. 00:00:00.000 : :Chapter 01
  388. 00:14:25.615 : :Chapter 02
  389. 00:22:08.035 : :Chapter 03
  390. 00:31:31.973 : :Chapter 04
  391. 00:40:48.696 : :Chapter 05
  392. 00:50:20.017 : :Chapter 06
  393. 01:01:09.666 : :Chapter 07
  394. 01:10:05.868 : :Chapter 08
  395. 01:19:44.488 : :Chapter 09
  396. 01:29:00.669 : :Chapter 10
  397. 01:40:41.160 : :Chapter 11
  398. 01:50:37.130 : :Chapter 12
  399. 01:59:28.536 : :Chapter 13
  400. 02:12:06.669 : :Chapter 14
复制代码




                                       
                                       

                                       
                                       
                                       





回复

使用道具 举报

蓝光币
649
发表于 2021-10-29 12:44:38 | 显示全部楼层

这东西我收了!谢谢楼主!蓝光电影网真好!
回复 支持 反对

使用道具 举报

蓝光币
2
发表于 2021-10-29 21:42:14 | 显示全部楼层
X特遣队:全员集结/Suicide Squad 2/X特遣队2/新自杀小队/自杀小队2/自杀特攻(港)/自杀突击队2/自杀突击队集结(台)
回复 支持 反对

使用道具 举报

蓝光币
2
发表于 2021-10-29 21:48:59 | 显示全部楼层
这东西我收了!谢谢楼主!蓝光电影网真好!
回复 支持 反对

使用道具 举报

蓝光币
58
发表于 2021-11-26 10:25:45 | 显示全部楼层
没有中文字幕,看不懂
回复 支持 反对

使用道具 举报

懒得打字嘛,点击右侧快捷回复 【右侧内容,后台自定义】
您需要登录后才可以回帖 登录 | 立即加入

本版积分规则

Archiver|小黑屋| 蓝光电影网 |网站地图

Copyright © 2021 Comsenz Inc. Powered by 蓝光电影网

蓝光电影网

本站内容由用户自主分享和转载自互联网,转载目的在于传递更多信息,并不代表本网赞同其观点和对其真实性负责。

如有侵权、违反国家法律政策行为,请联系我们,我们会第一时间及时清除和处理!

举报反馈邮箱:[email protected]

快速回复 返回顶部 返回列表