找回密码

蓝光电影网

查看: 384|回复: 0

[2160p-WEB] 骗局 The.Trick.2021.2160p.WEB-DL.x265.10bit.HDR.HLG.AAC2.0-TEPES 11.65GB

[复制链接]
蓝光币
682
发表于 2021-10-29 00:09:38 | 显示全部楼层 |阅读模式


◎译  名 圈套
◎片  名 The Trick
◎年  代 2021
◎产  地 英国
◎类  别 惊悚
◎语  言 英语
◎上映日期 2021-10-18(英国)
◎豆瓣评分 /10 from 0 users
◎豆瓣链接 https://movie.douban.com/subject/35498590/
◎主  演 杰森·沃特金斯 Jason Watkins
       乔治·麦凯 George MacKay
       维多利亚·汉密尔顿 Victoria Hamilton
       拉哈珊·斯通 Rhashan Stone
       艾波·罗丝·雷瓦 Amber Rose Revah
       杰罗姆·弗林 Jerome Flynn
       亚德里安·埃德蒙松 Adrian Edmondson
       斯图尔特·米里根 Stuart Milligan
       大卫·卡尔德 David Calder
       克里斯·拉金 Chris Larkin
       泼奇·奎尼尔 Pooky Quesnel
       贾斯汀·塞林格 Justin Salinger
       Andrew Dunn Andrew Dunn
       Aneirin Hughes Aneirin Hughes
       理查德·艾尔芬 Richard Elfyn
       Pinar ?gün Pinar ?gün
       Maria Pride Maria Pride
◎标  签 英劇 | 英剧 | 悬疑
◎简  介


  按照实在故事改编,聚焦2009年“天气门”事务配角,天下著名的天气学研讨专家菲利普·琼斯。
  1. Video
  2. ID                                       : 1
  3. Format                                   : HEVC
  4. Format/Info                              : High Efficiency Video Coding
  5. Format profile                           : Main [email protected]@Main
  6. Codec ID                                 : V_MPEGH/ISO/HEVC
  7. Duration                                 : 1 h 29 min
  8. Bit rate                                 : 18.5 Mb/s
  9. Width                                    : 3 840 pixels
  10. Height                                   : 2 160 pixels
  11. Display aspect ratio                     : 16:9
  12. Frame rate mode                          : Constant
  13. Frame rate                               : 25.000 FPS
  14. Standard                                 : Component
  15. Color space                              : YUV
  16. Chroma subsampling                       : 4:2:0
  17. Bit depth                                : 10 bits
  18. Bits/(Pixel*Frame)                       : 0.089
  19. Stream size                              : 11.5 GiB (99%)
  20. Language                                 : English
  21. Default                                  : Yes
  22. Forced                                   : No
  23. Color range                              : Limited
  24. Color primaries                          : BT.2020
  25. Transfer characteristics                 : BT.2020 (10-bit)
  26. transfer_characteristics_Original        : HLG / BT.2020 (10-bit)
  27. Matrix coefficients                      : BT.2020 non-constant

  28. Audio
  29. ID                                       : 2
  30. Format                                   : AAC LC
  31. Format/Info                              : Advanced Audio Codec Low Complexity
  32. Codec ID                                 : A_AAC-2
  33. Duration                                 : 1 h 29 min
  34. Bit rate                                 : 192 kb/s
  35. Channel(s)                               : 2 channels
  36. Channel layout                           : L R
  37. Sampling rate                            : 48.0 kHz
  38. Frame rate                               : 46.875 FPS (1024 SPF)
  39. Compression mode                         : Lossy
  40. Stream size                              : 121 MiB (1%)
  41. Language                                 : English
  42. Default                                  : Yes
  43. Forced                                   : No

  44. Text #1
  45. ID                                       : 3
  46. Format                                   : UTF-8
  47. Codec ID                                 : S_TEXT/UTF8
  48. Codec ID/Info                            : UTF-8 Plain Text
  49. Duration                                 : 1 h 27 min
  50. Bit rate                                 : 71 b/s
  51. Count of elements                        : 1181
  52. Stream size                              : 46.2 KiB (0%)
  53. Language                                 : English
  54. Default                                  : No
  55. Forced                                   : No

  56. Text #2
  57. ID                                       : 4
  58. Format                                   : UTF-8
  59. Codec ID                                 : S_TEXT/UTF8
  60. Codec ID/Info                            : UTF-8 Plain Text
  61. Duration                                 : 1 h 27 min
  62. Bit rate                                 : 71 b/s
  63. Count of elements                        : 1181
  64. Stream size                              : 46.3 KiB (0%)
  65. Title                                    : SDH
  66. Language                                 : English
  67. Default                                  : No
  68. Forced                                   : No
复制代码




                                       
                                       

                                       
                                       
                                       




回复

使用道具 举报

懒得打字嘛,点击右侧快捷回复 【右侧内容,后台自定义】
您需要登录后才可以回帖 登录 | 立即加入

本版积分规则

Archiver|小黑屋| 蓝光电影网 |网站地图

Copyright © 2021 Comsenz Inc. Powered by 蓝光电影网

蓝光电影网

本站内容由用户自主分享和转载自互联网,转载目的在于传递更多信息,并不代表本网赞同其观点和对其真实性负责。

如有侵权、违反国家法律政策行为,请联系我们,我们会第一时间及时清除和处理!

举报反馈邮箱:[email protected]

快速回复 返回顶部 返回列表