找回密码

蓝光电影网

查看: 326|回复: 0

[2160p-WEB] 丝绸之路 Silk.Road.2021.2160p.STAN.WEB-DL.x265.8bit.SDR.DTS-HD.MA.5.1-NOGRP 13.81GB

[复制链接]
蓝光币
682
发表于 2021-10-29 00:06:07 | 显示全部楼层 |阅读模式


◎译  名 丝绸之路/Dead End on Silk Road/丝绸之路的僵局/神鬼网战(台)
◎片  名 Silk Road
◎年  代 2021
◎产  地 美国
◎类  别 剧情 / 惊悚 / 犯罪
◎语  言 英语
◎上映日期 2021-02-19(美国)
◎豆瓣评分 5.8/10 from 559 users
◎豆瓣链接 https://movie.douban.com/subject/30448876/
◎片  长 112分钟
◎编  剧 David Kushner David Kushner
◎主  演 尼克·罗宾森 Nick Robinson
       亚历山德拉·希普 Alexandra Shipp
       吉米·辛普森 Jimmi Simpson
       杰森·克拉克 Jason Clarke
       保罗·布特 Paul Blott
       达里尔·布里特-吉布森 Darrell Britt-Gibson
       丹尼尔·戴维·斯图尔特 Daniel David Stewart
       亚历珊德拉?瑞秋·拉贝 Alexandra Rachael Rabe
       肯尼斯·米勒 Kenneth Miller
       凯蒂·阿赛尔顿 Katie Aselton
       贝丝·贝利 Beth Bailey
       威尔·罗普 Will Ropp
       梅格·史姑娘 Meg Smith
       崔维斯·汉默 Travis Hammer
       保罗·沃尔特·豪泽 Paul Walter Hauser
       麦克·米勒 Mike Miller
       罗莉凯恩 Raleigh Cain
       Phil Burke Phil Burke
       赛丽·罗杰斯 Tsailii Rogers
       罗德里戈·罗哈斯 Rodrigo Rojas
       斯科特·武田 Scott Takeda
◎标  签 犯罪 | 美国 | 实在故事 | 2021 | 剧情 | 惊悚 | 美国电影 | 尼克·罗宾森杰森·克拉克
◎简  介


  尼克·罗宾森、杰森·克拉克将主演犯罪题材新片[丝绸之路](Silk Road,暂译)。本片由蒂勒·罗素([耻归故乡])执导,按照大卫·库什纳颁发在《滚石》杂志的文章《丝绸之路的僵局》(Dead End on Silk Road)改编。文章报告黑客、毒贩罗斯·乌布里希特经营着一个庞大的网上黑市。本片将聚焦乌布里希特以及决心搞垮这个年轻主脑代价10亿美圆帝国的缉毒员间的故事。
  1. Video
  2. ID                                       : 1
  3. Format                                   : HEVC
  4. Format/Info                              : High Efficiency Video Coding
  5. Format profile                           : [email protected]@High
  6. Codec ID                                 : V_MPEGH/ISO/HEVC
  7. Duration                                 : 1 h 56 min
  8. Bit rate                                 : 14.3 Mb/s
  9. Width                                    : 3 840 pixels
  10. Height                                   : 2 160 pixels
  11. Display aspect ratio                     : 16:9
  12. Frame rate mode                          : Constant
  13. Frame rate                               : 23.976 (23976/1000/189150) FPS
  14. Original frame rate                      : 23.976 (24000/1001/189150) FPS
  15. Color space                              : YUV
  16. Chroma subsampling                       : 4:2:0
  17. Bit depth                                : 8 bits
  18. Bits/(Pixel*Frame)                       : 0.072
  19. Stream size                              : 11.6 GiB (84%)
  20. Language                                 : English
  21. Default                                  : Yes
  22. Forced                                   : No
  23. Color range                              : Limited
  24. Color primaries                          : BT.709
  25. Transfer characteristics                 : BT.709
  26. Matrix coefficients                      : BT.709

  27. Audio #1
  28. ID                                       : 2
  29. ID in the original source medium         : 4352 (0x1100)
  30. Format                                   : DTS XLL
  31. Format/Info                              : Digital Theater Systems
  32. Commercial name                          : DTS-HD Master Audio
  33. Codec ID                                 : A_DTS
  34. Duration                                 : 1 h 56 min
  35. Bit rate mode                            : Variable
  36. Bit rate                                 : 2 167 kb/s
  37. Channel(s)                               : 6 channels
  38. Channel layout                           : C L R Ls Rs LFE
  39. Sampling rate                            : 48.0 kHz
  40. Frame rate                               : 93.750 FPS (512 SPF)
  41. Bit depth                                : 24 bits
  42. Compression mode                         : Lossless
  43. Delay relative to video                  : 4 s 500 ms
  44. Stream size                              : 1.77 GiB (13%)
  45. Title                                    : DTS-HD MA 5.1
  46. Language                                 : English
  47. Default                                  : Yes
  48. Forced                                   : No
  49. Original source medium                   : Blu-ray

  50. Audio #2
  51. ID                                       : 3
  52. Format                                   : AAC LC
  53. Format/Info                              : Advanced Audio Codec Low Complexity
  54. Codec ID                                 : A_AAC-2
  55. Duration                                 : 1 h 56 min
  56. Bit rate                                 : 445 kb/s
  57. Channel(s)                               : 6 channels
  58. Channel layout                           : C L R Ls Rs LFE
  59. Sampling rate                            : 48.0 kHz
  60. Frame rate                               : 46.875 FPS (1024 SPF)
  61. Compression mode                         : Lossy
  62. Stream size                              : 371 MiB (3%)
  63. Title                                    : AAC 5.1
  64. Language                                 : English
  65. Default                                  : No
  66. Forced                                   : No

  67. Text #1
  68. ID                                       : 4
  69. Format                                   : UTF-8
  70. Codec ID                                 : S_TEXT/UTF8
  71. Codec ID/Info                            : UTF-8 Plain Text
  72. Duration                                 : 1 h 47 min
  73. Bit rate                                 : 71 b/s
  74. Count of elements                        : 1619
  75. Stream size                              : 56.7 KiB (0%)
  76. Title                                    : English-SRT
  77. Language                                 : English
  78. Default                                  : Yes
  79. Forced                                   : No

  80. Text #2
  81. ID                                       : 5
  82. ID in the original source medium         : 4608 (0x1200)
  83. Format                                   : PGS
  84. Muxing mode                              : zlib
  85. Codec ID                                 : S_HDMV/PGS
  86. Codec ID/Info                            : Picture based subtitle format used on BDs/HD-DVDs
  87. Duration                                 : 1 h 48 min
  88. Bit rate                                 : 47.4 kb/s
  89. Count of elements                        : 3458
  90. Stream size                              : 36.8 MiB (0%)
  91. Title                                    : English-PGS
  92. Language                                 : English
  93. Default                                  : No
  94. Forced                                   : No
  95. Original source medium                   : Blu-ray

  96. Text #3
  97. ID                                       : 6
  98. ID in the original source medium         : 4609 (0x1201)
  99. Format                                   : PGS
  100. Muxing mode                              : zlib
  101. Codec ID                                 : S_HDMV/PGS
  102. Codec ID/Info                            : Picture based subtitle format used on BDs/HD-DVDs
  103. Duration                                 : 1 h 48 min
  104. Bit rate                                 : 42.0 kb/s
  105. Count of elements                        : 3168
  106. Stream size                              : 32.7 MiB (0%)
  107. Title                                    : Spanish-PGS
  108. Language                                 : Spanish
  109. Default                                  : No
  110. Forced                                   : No
  111. Original source medium                   : Blu-ray

  112. Menu
  113. 00:00:00.000                             : en:Chapter 01
  114. 00:04:57.797                             : en:Chapter 02
  115. 00:10:53.986                             : en:Chapter 03
  116. 00:18:47.251                             : en:Chapter 04
  117. 00:24:07.821                             : en:Chapter 05
  118. 00:30:02.759                             : en:Chapter 06
  119. 00:34:28.733                             : en:Chapter 07
  120. 00:40:52.491                             : en:Chapter 08
  121. 00:47:19.545                             : en:Chapter 09
  122. 00:55:24.237                             : en:Chapter 10
  123. 01:04:29.073                             : en:Chapter 11
  124. 01:13:10.052                             : en:Chapter 12
  125. 01:21:47.819                             : en:Chapter 13
  126. 01:30:01.729                             : en:Chapter 14
  127. 01:37:16.163                             : en:Chapter 15
  128. 01:44:17.084                             : en:Chapter 16
复制代码







                                       
                                       

                                       
                                       
                                       




回复

使用道具 举报

懒得打字嘛,点击右侧快捷回复 【右侧内容,后台自定义】
您需要登录后才可以回帖 登录 | 立即加入

本版积分规则

Archiver|小黑屋| 蓝光电影网 |网站地图

Copyright © 2021 Comsenz Inc. Powered by 蓝光电影网

蓝光电影网

本站内容由用户自主分享和转载自互联网,转载目的在于传递更多信息,并不代表本网赞同其观点和对其真实性负责。

如有侵权、违反国家法律政策行为,请联系我们,我们会第一时间及时清除和处理!

举报反馈邮箱:[email protected]

快速回复 返回顶部 返回列表