找回密码

蓝光电影网

查看: 361|回复: 1

[剧情] 食人族 Cannibal.Man.1972.EXTENDED.1080p.BluRay.x264-WATCHABLE 14.28GB

[复制链接]
蓝光币
733
发表于 2021-10-29 09:44:08 | 显示全部楼层 |阅读模式
[img][/img]

◎译  名 食人族/La semana del asesino/The Cannibal Man
◎片  名 La semana del asesino
◎年  代 1972
◎产  地 西班牙
◎类  别 剧情 / 惊悚
◎语  言 西班牙语
◎上映日期 1972-04-22
◎豆瓣评分 /10 from 0 users
◎豆瓣链接 https://movie.douban.com/subject/2131432/
◎片  长 UK: 98 分钟
◎导  演 埃洛伊·德拉·伊格莱西亚 Eloy de la Iglesia
◎编  剧 埃洛伊·德拉·伊格莱西亚 Eloy de la Iglesia / 迪克·兰德尔 Dick Randall
◎主  演 Fernando Sánchez Polack Fernando Sánchez Polack
       伊斯梅尔·梅洛 Ismael Merlo
       Goyo Lebrero Goyo Lebrero
       Vicky Lagos Vicky Lagos
       Lola Herrera Lola Herrera
       拉斐尔·埃尔南德斯 Rafael Hernández
       José Franco José Franco
       Paca Gabaldón Paca Gabaldón
       沙利·布拉沃 Charly Bravo
       欧塞维奥·庞塞拉 Eusebio Poncela
       艾玛·科恩 Emma Cohen
       安东尼奥·德·雷阿 Antonio del Real
       文森特·帕拉 Vicente Parra
◎标  签 食人族 | 食人族系列 | 可骇 | 欧美 | 西班牙电影 | 国外电影 | 西班牙 | 惊悚
◎简  介


  暂无相关剧情先容
  1. Video
  2. ID                                       : 1
  3. Format                                   : AVC
  4. Format/Info                              : Advanced Video Codec
  5. Format profile                           : [email protected]
  6. Format settings                          : CABAC / 4 Ref Frames
  7. Format settings, CABAC                   : Yes
  8. Format settings, Reference frames        : 4 frames
  9. Codec ID                                 : V_MPEG4/ISO/AVC
  10. Duration                                 : 1 h 47 min
  11. Bit rate                                 : 17.6 Mb/s
  12. Width                                    : 1 920 pixels
  13. Height                                   : 1 036 pixels
  14. Display aspect ratio                     : 1.85:1
  15. Original display aspect ratio            : 1.85:1
  16. Frame rate mode                          : Constant
  17. Frame rate                               : 23.976 (24000/1001/189150) FPS
  18. Color space                              : YUV
  19. Chroma subsampling                       : 4:2:0
  20. Bit depth                                : 8 bits
  21. Scan type                                : Progressive
  22. Bits/(Pixel*Frame)                       : 0.369
  23. Stream size                              : 13.2 GiB (92%)
  24. Writing library                          : x264 core 164 r3075 66a5bc1
  25. Encoding settings                        : cabac=1 / ref=4 / deblock=1:0:0 / analyse=0x3:0x133 / me=umh / subme=9 / psy=1 / psy_rd=1.00:0.00 / mixed_ref=1 / me_range=16 / chroma_me=1 / trellis=2 / 8x8dct=1 / cqm=0 / deadzone=21,11 / fast_pskip=1 / chroma_qp_offset=-2 / threads=12 / lookahead_threads=1 / sliced_threads=0 / nr=0 / decimate=1 / interlaced=0 / bluray_compat=0 / constrained_intra=0 / bframes=3 / b_pyramid=2 / b_adapt=2 / b_bias=0 / direct=3 / weightb=1 / open_gop=0 / weightp=2 / keyint=250 / keyint_min=23 / scenecut=40 / intra_refresh=0 / rc_lookahead=60 / rc=crf / mbtree=1 / crf=20.0 / qcomp=0.60 / qpmin=0 / qpmax=69 / qpstep=4 / ip_ratio=1.40 / aq=1:1.00
  26. Default                                  : Yes
  27. Forced                                   : No
  28. Color range                              : Limited
  29. Color primaries                          : BT.709
  30. Transfer characteristics                 : BT.709
  31. Matrix coefficients                      : BT.709
  32. Audio #1
  33. ID                                       : 2
  34. Format                                   : FLAC
  35. Format/Info                              : Free Lossless Audio Codec
  36. Codec ID                                 : A_FLAC
  37. Duration                                 : 1 h 47 min
  38. Bit rate mode                            : Variable
  39. Bit rate                                 : 1 123 kb/s
  40. Channel(s)                               : 2 channels
  41. Channel layout                           : L R
  42. Sampling rate                            : 48.0 kHz
  43. Frame rate                               : 10.417 FPS (4608 SPF)
  44. Bit depth                                : 24 bits
  45. Compression mode                         : Lossless
  46. Stream size                              : 862 MiB (6%)
  47. Title                                    : Spanish
  48. Writing library                          : Lavf59.0.101
  49. Language                                 : Spanish
  50. Default                                  : Yes
  51. Forced                                   : No
  52. Audio #2
  53. ID                                       : 3
  54. Format                                   : FLAC
  55. Format/Info                              : Free Lossless Audio Codec
  56. Codec ID                                 : A_FLAC
  57. Duration                                 : 1 h 47 min
  58. Bit rate mode                            : Variable
  59. Bit rate                                 : 317 kb/s
  60. Channel(s)                               : 2 channels
  61. Channel layout                           : L R
  62. Sampling rate                            : 48.0 kHz
  63. Frame rate                               : 10.417 FPS (4608 SPF)
  64. Bit depth                                : 24 bits
  65. Compression mode                         : Lossless
  66. Stream size                              : 243 MiB (2%)
  67. Title                                    : English
  68. Writing library                          : Lavf59.0.101
  69. Language                                 : English
  70. Default                                  : No
  71. Forced                                   : No
  72. Text #1
  73. ID                                       : 4
  74. Format                                   : UTF-8
  75. Codec ID                                 : S_TEXT/UTF8
  76. Codec ID/Info                            : UTF-8 Plain Text
  77. Duration                                 : 1 h 47 min
  78. Bit rate                                 : 46 b/s
  79. Count of elements                        : 1188
  80. Stream size                              : 36.8 KiB (0%)
  81. Title                                    : English SDH SRT
  82. Language                                 : English
  83. Default                                  : Yes
  84. Forced                                   : Yes
  85. Text #2
  86. ID                                       : 5
  87. Format                                   : UTF-8
  88. Codec ID                                 : S_TEXT/UTF8
  89. Codec ID/Info                            : UTF-8 Plain Text
  90. Duration                                 : 1 h 30 min
  91. Bit rate                                 : 6 b/s
  92. Count of elements                        : 136
  93. Stream size                              : 4.54 KiB (0%)
  94. Title                                    : English Forced SRT
  95. Language                                 : English
  96. Default                                  : No
  97. Forced                                   : No
  98. Text #3
  99. ID                                       : 6
  100. Format                                   : UTF-8
  101. Codec ID                                 : S_TEXT/UTF8
  102. Codec ID/Info                            : UTF-8 Plain Text
  103. Duration                                 : 1 h 44 min
  104. Bit rate                                 : 44 b/s
  105. Count of elements                        : 1012
  106. Stream size                              : 33.8 KiB (0%)
  107. Title                                    : English Full SRT
  108. Language                                 : English
  109. Default                                  : No
  110. Forced                                   : No
  111. Text #4
  112. ID                                       : 7
  113. Format                                   : PGS
  114. Muxing mode                              : zlib
  115. Codec ID                                 : S_HDMV/PGS
  116. Codec ID/Info                            : Picture based subtitle format used on BDs/HD-DVDs
  117. Duration                                 : 1 h 47 min
  118. Bit rate                                 : 29.6 kb/s
  119. Count of elements                        : 1832
  120. Stream size                              : 22.7 MiB (0%)
  121. Title                                    : English SDH PGS
  122. Language                                 : English
  123. Default                                  : No
  124. Forced                                   : No
  125. Text #5
  126. ID                                       : 8
  127. Format                                   : PGS
  128. Muxing mode                              : zlib
  129. Codec ID                                 : S_HDMV/PGS
  130. Codec ID/Info                            : Picture based subtitle format used on BDs/HD-DVDs
  131. Duration                                 : 1 h 30 min
  132. Bit rate                                 : 4 240 b/s
  133. Count of elements                        : 255
  134. Stream size                              : 2.73 MiB (0%)
  135. Title                                    : English Forced PGS
  136. Language                                 : English
  137. Default                                  : No
  138. Forced                                   : No
  139. Text #6
  140. ID                                       : 9
  141. Format                                   : PGS
  142. Muxing mode                              : zlib
  143. Codec ID                                 : S_HDMV/PGS
  144. Codec ID/Info                            : Picture based subtitle format used on BDs/HD-DVDs
  145. Duration                                 : 1 h 44 min
  146. Bit rate                                 : 26.8 kb/s
  147. Count of elements                        : 1893
  148. Stream size                              : 20.1 MiB (0%)
  149. Title                                    : English Full PGS
  150. Language                                 : English
  151. Default                                  : No
  152. Forced                                   : No
  153. Menu
  154. 00:00:00.000                             : Chapter 01
  155. 00:12:08.061                             : Chapter 02
  156. 00:26:29.797                             : Chapter 03
  157. 00:38:11.498                             : Chapter 04
  158. 00:52:43.577                             : Chapter 05
  159. 01:02:11.353                             : Chapter 06
  160. 01:14:00.269                             : Chapter 07
  161. 01:20:07.803                             : Chapter 08
  162. 01:29:36.538                             : Chapter 09
  163. 01:34:04.556                             : Chapter 10
复制代码




                                       
                                       

                                       
                                       
                                       




回复

使用道具 举报

蓝光币
1
发表于 2021-10-30 18:01:23 | 显示全部楼层

其实我一直觉得楼主的品味不错!呵呵!蓝光电影网太棒了!
回复 支持 反对

使用道具 举报

懒得打字嘛,点击右侧快捷回复 【右侧内容,后台自定义】
您需要登录后才可以回帖 登录 | 立即加入

本版积分规则

Archiver|小黑屋| 蓝光电影网 |网站地图

Copyright © 2021 Comsenz Inc. Powered by 蓝光电影网

蓝光电影网

本站内容由用户自主分享和转载自互联网,转载目的在于传递更多信息,并不代表本网赞同其观点和对其真实性负责。

如有侵权、违反国家法律政策行为,请联系我们,我们会第一时间及时清除和处理!

举报反馈邮箱:[email protected]

快速回复 返回顶部 返回列表