找回密码

蓝光电影网

查看: 265|回复: 0

[恐怖] 热血沸腾/血打 Bloot.Beat.1983.1080p.BluRay.x264.AAC1.0-HANDJOB 6.49GB

[复制链接]
蓝光币
682
发表于 2021-10-29 09:40:44 | 显示全部楼层 |阅读模式
[img][/img]

◎译  名 热血沸腾/血打
◎片  名 Blood Beat
◎年  代 1983
◎产  地 美国
◎类  别 可骇
◎语  言 英语
◎上映日期 1983
◎豆瓣评分 /10 from 0 users
◎豆瓣链接 https://movie.douban.com/subject/5048911/
◎主  演 Terry Brown Terry Brown
       戴娜·普莱斯 Dayna Price
       Peter Spelson Peter Spelson
◎标  签 可骇 | 记号 | 美国电影 | 惊悚
◎简  介


  一个生活在威斯康星的猎鹿村落的女子,被一个日本军人的精神吸引。
  1. Video
  2. ID                                       : 1
  3. Format                                   : AVC
  4. Format/Info                              : Advanced Video Codec
  5. Format profile                           : [email protected]
  6. Format settings                          : CABAC / 5 Ref Frames
  7. Format settings, CABAC                   : Yes
  8. Format settings, Reference frames        : 5 frames
  9. Codec ID                                 : V_MPEG4/ISO/AVC
  10. Duration                                 : 1 h 26 min
  11. Bit rate                                 : 10.5 Mb/s
  12. Width                                    : 1 440 pixels
  13. Height                                   : 1 080 pixels
  14. Display aspect ratio                     : 4:3
  15. Frame rate mode                          : Constant
  16. Frame rate                               : 23.976 (24000/1001/189150) FPS
  17. Color space                              : YUV
  18. Chroma subsampling                       : 4:2:0
  19. Bit depth                                : 8 bits
  20. Scan type                                : Progressive
  21. Bits/(Pixel*Frame)                       : 0.282
  22. Stream size                              : 6.36 GiB (98%)
  23. Writing library                          : x264 core 161 r3039 544c61f
  24. Encoding settings                        : cabac=1 / ref=5 / deblock=1:-3:-3 / analyse=0x3:0x133 / me=umh / subme=10 / psy=1 / psy_rd=1.00:0.00 / mixed_ref=1 / me_range=32 / chroma_me=1 / trellis=2 / 8x8dct=1 / cqm=0 / deadzone=21,11 / fast_pskip=0 / chroma_qp_offset=-2 / threads=24 / lookahead_threads=6 / sliced_threads=0 / nr=0 / decimate=0 / interlaced=0 / bluray_compat=0 / constrained_intra=0 / bframes=16 / b_pyramid=2 / b_adapt=2 / b_bias=0 / direct=3 / weightb=1 / open_gop=0 / weightp=2 / keyint=240 / keyint_min=24 / scenecut=40 / intra_refresh=0 / rc_lookahead=60 / rc=crf / mbtree=0 / crf=22.0 / qcomp=0.60 / qpmin=0 / qpmax=69 / qpstep=4 / vbv_maxrate=62500 / vbv_bufsize=78125 / crf_max=0.0 / nal_hrd=none / filler=0 / ip_ratio=1.40 / pb_ratio=1.30 / aq=2:1.00
  25. Language                                 : English
  26. Default                                  : Yes
  27. Forced                                   : No
  28. Color range                              : Limited
  29. Color primaries                          : BT.709
  30. Transfer characteristics                 : BT.709
  31. Matrix coefficients                      : BT.709
  32. Audio #1
  33. ID                                       : 2
  34. Format                                   : AAC LC
  35. Format/Info                              : Advanced Audio Codec Low Complexity
  36. Codec ID                                 : A_AAC-2
  37. Duration                                 : 1 h 26 min
  38. Bit rate                                 : 141 kb/s
  39. Channel(s)                               : 1 channel
  40. Channel layout                           : C
  41. Sampling rate                            : 48.0 kHz
  42. Frame rate                               : 46.875 FPS (1024 SPF)
  43. Compression mode                         : Lossy
  44. Stream size                              : 87.2 MiB (1%)
  45. Language                                 : English
  46. Default                                  : Yes
  47. Forced                                   : No
  48. Audio #2
  49. ID                                       : 3
  50. Format                                   : AAC LC
  51. Format/Info                              : Advanced Audio Codec Low Complexity
  52. Codec ID                                 : A_AAC-2
  53. Duration                                 : 1 h 26 min
  54. Bit rate                                 : 63.4 kb/s
  55. Channel(s)                               : 1 channel
  56. Channel layout                           : C
  57. Sampling rate                            : 48.0 kHz
  58. Frame rate                               : 46.875 FPS (1024 SPF)
  59. Compression mode                         : Lossy
  60. Stream size                              : 39.3 MiB (0%)
  61. Title                                    : Commentary with writer/director Fabrice Zaphiratos
  62. Language                                 : French
  63. Default                                  : No
  64. Forced                                   : No
  65. Text #1
  66. ID                                       : 4
  67. Format                                   : UTF-8
  68. Codec ID                                 : S_TEXT/UTF8
  69. Codec ID/Info                            : UTF-8 Plain Text
  70. Duration                                 : 1 h 19 min
  71. Bit rate                                 : 26 b/s
  72. Count of elements                        : 744
  73. Stream size                              : 15.5 KiB (0%)
  74. Title                                    : SRT
  75. Language                                 : English
  76. Default                                  : Yes
  77. Forced                                   : No
  78. Text #2
  79. ID                                       : 5
  80. Format                                   : PGS
  81. Muxing mode                              : zlib
  82. Codec ID                                 : S_HDMV/PGS
  83. Codec ID/Info                            : Picture based subtitle format used on BDs/HD-DVDs
  84. Duration                                 : 1 h 24 min
  85. Bit rate                                 : 20.8 kb/s
  86. Count of elements                        : 1823
  87. Stream size                              : 12.6 MiB (0%)
  88. Language                                 : English
  89. Default                                  : No
  90. Forced                                   : No
  91. Text #3
  92. ID                                       : 6
  93. Format                                   : PGS
  94. Muxing mode                              : zlib
  95. Codec ID                                 : S_HDMV/PGS
  96. Codec ID/Info                            : Picture based subtitle format used on BDs/HD-DVDs
  97. Duration                                 : 1 h 26 min
  98. Bit rate                                 : 37.0 kb/s
  99. Count of elements                        : 1701
  100. Stream size                              : 22.9 MiB (0%)
  101. Title                                    : Commentary
  102. Language                                 : English
  103. Default                                  : No
  104. Forced                                   : No
  105. Menu
  106. 00:00:00.000                             : :Chapter 1
  107. 00:19:37.677                             : :Chapter 2
  108. 00:39:55.935                             : :Chapter 3
  109. 00:56:37.477                             : :Chapter 4
  110. 01:14:03.481                             : :Chapter 5
复制代码






                                       
                                       

                                       
                                       
                                       




回复

使用道具 举报

懒得打字嘛,点击右侧快捷回复 【右侧内容,后台自定义】
您需要登录后才可以回帖 登录 | 立即加入

本版积分规则

Archiver|小黑屋| 蓝光电影网 |网站地图

Copyright © 2021 Comsenz Inc. Powered by 蓝光电影网

蓝光电影网

本站内容由用户自主分享和转载自互联网,转载目的在于传递更多信息,并不代表本网赞同其观点和对其真实性负责。

如有侵权、违反国家法律政策行为,请联系我们,我们会第一时间及时清除和处理!

举报反馈邮箱:[email protected]

快速回复 返回顶部 返回列表