找回密码

蓝光电影网

查看: 217|回复: 0

[奇幻] 千面珍宝金 Jane.B.for.Agnes.V.1988.FRENCH.1080p.BluRay.x264.AAC2.0-PTP 7.00GB

[复制链接]
蓝光币
682
发表于 2021-10-29 09:37:00 | 显示全部楼层 |阅读模式
[img][/img]

◎译  名 千面珍宝金/Jane B. for Agnes V./写珍集
◎片  名 Jane B. par Agnès V.
◎年  代 1988
◎产  地 法国
◎类  别 奇异
◎语  言 法语
◎上映日期 1988-03-02(法国)
◎豆瓣评分 8.2/10 from 780 users
◎豆瓣链接 https://movie.douban.com/subject/1307939/
◎片  长 97分钟
◎导  演 阿涅斯·瓦尔达 Agnès Varda
◎编  剧 阿涅斯·瓦尔达 Agnès Varda
◎主  演 简·伯金 Jane Birkin
       让-皮埃尔·利奥德 Jean-Pierre Léaud
       菲利普·莱奥塔尔 Philippe Léotard
       法里德·肖佩尔 Farid Chopel
       阿兰·苏雄 Alain Souchon
       赛日·甘斯布 Serge Gainsbourg
       劳拉·贝蒂 Laura Betti
       夏洛特·甘斯布 Charlotte Gainsbourg
       马修·德米 Mathieu Demy
       阿涅斯·瓦尔达 Agnès Varda
◎标  签 法国 | 阿涅斯·瓦尔达 | AgnèsVarda | JaneBirkin | 新浪潮 | 1988 | 法国电影 | 1980s
◎简  介


  这是一部著名歌手和演员 Jane Birkin (珍.宝金)的电影画像。我们发现林林总总的珍.宝金,在各类分歧的季节,在各类分歧的状态。还包括别的的珍:圣女贞德、泰山的珍、法国著名男歌手 Gainsbourg ,也就是珍.宝金的丈夫的珍……
  1. Video
  2. ID                                       : 1
  3. Format                                   : AVC
  4. Format/Info                              : Advanced Video Codec
  5. Format profile                           : [email protected]
  6. Format settings                          : CABAC / 4 Ref Frames
  7. Format settings, CABAC                   : Yes
  8. Format settings, Reference frames        : 4 frames
  9. Codec ID                                 : V_MPEG4/ISO/AVC
  10. Duration                                 : 1 h 38 min
  11. Bit rate                                 : 10 000 kb/s
  12. Width                                    : 1 792 pixels
  13. Height                                   : 1 080 pixels
  14. Display aspect ratio                     : 5:3
  15. Frame rate mode                          : Constant
  16. Frame rate                               : 24.000 FPS
  17. Color space                              : YUV
  18. Chroma subsampling                       : 4:2:0
  19. Bit depth                                : 8 bits
  20. Scan type                                : Progressive
  21. Bits/(Pixel*Frame)                       : 0.215
  22. Stream size                              : 6.90 GiB (99%)
  23. Writing library                          : x264 core 157 r2935 545de2f
  24. Encoding settings                        : cabac=1 / ref=4 / deblock=1:-3:-3 / analyse=0x3:0x133 / me=umh / subme=10 / psy=1 / psy_rd=1.00:0.00 / mixed_ref=1 / me_range=32 / chroma_me=1 / trellis=2 / 8x8dct=1 / cqm=0 / deadzone=21,11 / fast_pskip=0 / chroma_qp_offset=-2 / threads=18 / lookahead_threads=4 / sliced_threads=0 / nr=0 / decimate=0 / interlaced=0 / bluray_compat=0 / constrained_intra=0 / bframes=16 / b_pyramid=2 / b_adapt=2 / b_bias=0 / direct=3 / weightb=1 / open_gop=0 / weightp=2 / keyint=240 / keyint_min=24 / scenecut=40 / intra_refresh=0 / rc_lookahead=60 / rc=2pass / mbtree=0 / bitrate=10000 / ratetol=1.0 / qcomp=0.60 / qpmin=0 / qpmax=69 / qpstep=4 / cplxblur=20.0 / qblur=0.5 / vbv_maxrate=62500 / vbv_bufsize=78125 / nal_hrd=none / filler=0 / ip_ratio=1.40 / pb_ratio=1.30 / aq=2:1.00
  25. Default                                  : Yes
  26. Forced                                   : No
  27. Color range                              : Limited
  28. Color primaries                          : BT.709
  29. Transfer characteristics                 : BT.709
  30. Matrix coefficients                      : BT.709
  31. Audio
  32. ID                                       : 2
  33. Format                                   : AAC LC
  34. Format/Info                              : Advanced Audio Codec Low Complexity
  35. Codec ID                                 : A_AAC-2
  36. Duration                                 : 1 h 38 min
  37. Bit rate                                 : 132 kb/s
  38. Channel(s)                               : 2 channels
  39. Channel layout                           : L R
  40. Sampling rate                            : 48.0 kHz
  41. Frame rate                               : 46.875 FPS (1024 SPF)
  42. Compression mode                         : Lossy
  43. Stream size                              : 93.2 MiB (1%)
  44. Language                                 : French
  45. Default                                  : Yes
  46. Forced                                   : No
  47. Text #1
  48. ID                                       : 3
  49. Format                                   : UTF-8
  50. Codec ID                                 : S_TEXT/UTF8
  51. Codec ID/Info                            : UTF-8 Plain Text
  52. Duration                                 : 1 h 37 min
  53. Bit rate                                 : 49 b/s
  54. Count of elements                        : 1423
  55. Stream size                              : 35.3 KiB (0%)
  56. Title                                    : SRT
  57. Language                                 : English
  58. Default                                  : Yes
  59. Forced                                   : No
  60. Text #2
  61. ID                                       : 4
  62. Format                                   : PGS
  63. Muxing mode                              : zlib
  64. Codec ID                                 : S_HDMV/PGS
  65. Codec ID/Info                            : Picture based subtitle format used on BDs/HD-DVDs
  66. Duration                                 : 1 h 38 min
  67. Bit rate                                 : 22.2 kb/s
  68. Count of elements                        : 2851
  69. Stream size                              : 15.6 MiB (0%)
  70. Language                                 : English
  71. Default                                  : No
  72. Forced                                   : No
  73. Menu
  74. 00:00:00.000                             : :Jane B. par Angès V.
  75. 00:03:46.708                             : :Two questions
  76. 00:08:44.500                             : :You\'re stuck on money
  77. 00:13:30.458                             : :A muse
  78. 00:19:45.958                             : :A gift
  79. 00:31:30.667                             : :Do you dream?
  80. 00:35:02.583                             : :Maurel and Lardy
  81. 00:43:34.833                             : :A famous nobody
  82. 00:52:16.417                             : :My heart belongs to daddy
  83. 00:59:41.375                             : :A painting by Angès
  84. 01:08:16.917                             : :Le moi et le je
  85. 01:12:27.333                             : :Le petit amour
  86. 01:18:55.542                             : :Place your bets
  87. 01:28:03.625                             : :Tomboys and Amazons
  88. 01:35:09.083                             : :Time passes
复制代码





                                       
                                       

                                       
                                       
                                       




回复

使用道具 举报

懒得打字嘛,点击右侧快捷回复 【右侧内容,后台自定义】
您需要登录后才可以回帖 登录 | 立即加入

本版积分规则

Archiver|小黑屋| 蓝光电影网 |网站地图

Copyright © 2021 Comsenz Inc. Powered by 蓝光电影网

蓝光电影网

本站内容由用户自主分享和转载自互联网,转载目的在于传递更多信息,并不代表本网赞同其观点和对其真实性负责。

如有侵权、违反国家法律政策行为,请联系我们,我们会第一时间及时清除和处理!

举报反馈邮箱:[email protected]

快速回复 返回顶部 返回列表