找回密码

蓝光电影网

查看: 233|回复: 0

[剧情] 捕鼠者/捕鼠器 Ratcatcher.1999.1080p.BluRay.x264.FLAC2.0-PTer 12.88GB

[复制链接]
蓝光币
682
发表于 2021-10-29 09:34:42 | 显示全部楼层 |阅读模式
[img][/img]

◎译  名 捕鼠者/捕鼠器
◎片  名 Ratcatcher
◎年  代 1999
◎产  地 英国,法国
◎类  别 剧情
◎语  言 英语
◎上映日期 1999-11-12
◎豆瓣评分 8.2/10 from 6132 users
◎豆瓣链接 https://movie.douban.com/subject/1322674/
◎片  长 94 分钟
◎导  演 琳恩·拉姆塞 Lynne Ramsay
◎编  剧 琳恩·拉姆塞 Lynne Ramsay
◎主  演 汤米·弗拉纳根 Tommy Flanagan
       Mandy Matthews Mandy Matthews
       James Ramsay James Ramsay
◎标  签 英国 | 青春 | 英国电影 | 长大 | 1999 | 剧情 | LynneRamsay | Lynne_Ramsay
◎简  介


  故事发生在1973年的格拉斯哥,对于男孩詹姆斯(威廉·艾迪 William Eadie 饰)来说,这个炎天并欠好过,炎炎的烈日让人怎样都打不起精神,而清洁工人的大罢工让街道瞬间酿成了堆满了腐臭渣滓的渣滓场。固然,这些都不是最重要的,最使詹姆斯寝食难安的是自己的朋友赖安(Thomas McTaggart 饰)的灭亡,是他的死和自己有着千丝万缕的联系。
  
  透过詹姆斯的眼睛,我们看到了龌龊不胜的天下,但同时,他茫然迟疑的眼光里仍然饱含着对未来的向往和对爱的渴望。在谁也不晓得的地方,一颗幼小的灵魂不竭的被疾苦纠缠着,磨砺着,作为价格,它将绽放出最最使人骇怪的纯洁光芒。
◎获奖情况
  第52届戛纳电影节 ?(1999)
  一种关注单元一种关注大奖(提名) 琳恩·拉姆塞
  
  第53届英国电影学院奖 ?(2000)
  电影奖最好英国影片(提名) 加文·埃莫森?/?琳恩·拉姆塞
  电影奖精采新人奖 琳恩·拉姆塞
  1. Video
  2. ID                                       : 1
  3. Format                                   : AVC
  4. Format/Info                              : Advanced Video Codec
  5. Format profile                           : [email protected]
  6. Format settings                          : CABAC / 4 Ref Frames
  7. Format settings, CABAC                   : Yes
  8. Format settings, Reference frames        : 4 frames
  9. Codec ID                                 : V_MPEG4/ISO/AVC
  10. Duration                                 : 1 h 33 min
  11. Bit rate                                 : 19.1 Mb/s
  12. Width                                    : 1 920 pixels
  13. Height                                   : 1 038 pixels
  14. Display aspect ratio                     : 1.85:1
  15. Frame rate mode                          : Constant
  16. Frame rate                               : 23.976 (24000/1001/189150) FPS
  17. Color space                              : YUV
  18. Chroma subsampling                       : 4:2:0
  19. Bit depth                                : 8 bits
  20. Scan type                                : Progressive
  21. Bits/(Pixel*Frame)                       : 0.399
  22. Stream size                              : 12.5 GiB (97%)
  23. Writing library                          : x264 core 164 r3075+55 97d28bb t_mod_New [(8 & 10)[email protected] X86_64]
  24. Encoding settings                        : cabac=1 / ref=4 / deblock=1:-3:-3 / analyse=0x3:0x133 / me=umh / subme=11 / psy=1 / fade_compensate=0.00 / psy_rd=1.02:0.00 / mixed_ref=1 / me_range=32 / chroma_me=1 / trellis=2 / 8x8dct=1 / cqm=0 / deadzone=21,11 / fast_pskip=0 / chroma_qp_offset=-2 / threads=24 / lookahead_threads=6 / sliced_threads=0 / nr=0 / decimate=0 / interlaced=0 / bluray_compat=0 / constrained_intra=0 / fgo=0 / bframes=16 / b_pyramid=2 / b_adapt=2 / b_bias=0 / direct=3 / weightb=1 / open_gop=0 / weightp=2 / keyint=250 / keyint_min=23 / scenecut=40 / intra_refresh=0 / rc_lookahead=250 / rc=crf / mbtree=0 / crf=21.0000 / qcomp=0.60 / qpmin=0:0:0 / qpmax=69:69:69 / qpstep=4 / vbv_maxrate=62500 / vbv_bufsize=78125 / crf_max=0.0 / nal_hrd=none / filler=0 / ip_ratio=1.30 / pb_ratio=1.20 / aq=3:0.70 / aq-sensitivity=10.00 / aq-factor=1.00:1.00:1.00 / aq2=0 / aq3=0 / zones=130967,135015,crf=24
  25. Language                                 : English
  26. Default                                  : Yes
  27. Forced                                   : No
  28. Color range                              : Limited
  29. Color primaries                          : BT.709
  30. Transfer characteristics                 : BT.709
  31. Matrix coefficients                      : BT.709
  32. Audio
  33. ID                                       : 2
  34. Format                                   : FLAC
  35. Format/Info                              : Free Lossless Audio Codec
  36. Codec ID                                 : A_FLAC
  37. Duration                                 : 1 h 33 min
  38. Bit rate mode                            : Variable
  39. Bit rate                                 : 592 kb/s
  40. Channel(s)                               : 2 channels
  41. Channel layout                           : L R
  42. Sampling rate                            : 48.0 kHz
  43. Frame rate                               : 11.719 FPS (4096 SPF)
  44. Bit depth                                : 16 bits
  45. Detected bit depth                       : 24 bits
  46. Compression mode                         : Lossless
  47. Stream size                              : 398 MiB (3%)
  48. Writing library                          : libFLAC 1.3.1 (UTC 2014-11-25)
  49. Language                                 : English
  50. Default                                  : Yes
  51. Forced                                   : No
  52. Text #1
  53. ID                                       : 3
  54. Format                                   : UTF-8
  55. Codec ID                                 : S_TEXT/UTF8
  56. Codec ID/Info                            : UTF-8 Plain Text
  57. Duration                                 : 1 h 28 min
  58. Bit rate                                 : 26 b/s
  59. Count of elements                        : 574
  60. Stream size                              : 17.2 KiB (0%)
  61. Title                                    : Simplified
  62. Language                                 : Chinese
  63. Default                                  : Yes
  64. Forced                                   : No
  65. Text #2
  66. ID                                       : 4
  67. Format                                   : UTF-8
  68. Codec ID                                 : S_TEXT/UTF8
  69. Codec ID/Info                            : UTF-8 Plain Text
  70. Duration                                 : 1 h 24 min
  71. Bit rate                                 : 41 b/s
  72. Count of elements                        : 786
  73. Stream size                              : 25.5 KiB (0%)
  74. Title                                    : Criterion BD
  75. Language                                 : English
  76. Default                                  : No
  77. Forced                                   : No
  78. Text #3
  79. ID                                       : 5
  80. Format                                   : UTF-8
  81. Codec ID                                 : S_TEXT/UTF8
  82. Codec ID/Info                            : UTF-8 Plain Text
  83. Duration                                 : 1 h 24 min
  84. Bit rate                                 : 30 b/s
  85. Count of elements                        : 573
  86. Stream size                              : 18.8 KiB (0%)
  87. Title                                    : Criterion DVD
  88. Language                                 : English
  89. Default                                  : No
  90. Forced                                   : No
  91. Text #4
  92. ID                                       : 6
  93. Format                                   : UTF-8
  94. Codec ID                                 : S_TEXT/UTF8
  95. Codec ID/Info                            : UTF-8 Plain Text
  96. Duration                                 : 1 h 26 min
  97. Bit rate                                 : 48 b/s
  98. Count of elements                        : 929
  99. Stream size                              : 30.4 KiB (0%)
  100. Title                                    : SDH (Criterion BD)
  101. Language                                 : English
  102. Default                                  : No
  103. Forced                                   : No
  104. Menu
  105. 00:00:00.000                             : en:Ryan Quinn
  106. 00:06:57.751                             : en:Mourning
  107. 00:11:48.708                             : en:Gray Paint
  108. 00:14:50.098                             : en:Sisters
  109. 00:19:47.895                             : en:Glasses
  110. 00:22:58.669                             : en:New Shoes
  111. 00:27:41.201                             : en:Kenny
  112. 00:29:51.999                             : en:Boys
  113. 00:34:55.719                             : en:Bus Trip
  114. 00:42:59.160                             : en:Crawling
  115. 00:47:20.129                             : en:Snowball
  116. 00:53:46.640                             : en:Bath
  117. 01:01:15.171                             : en:Local Hero
  118. 01:10:55.126                             : en:Comfort
  119. 01:18:01.176                             : en:To the Fields
  120. 01:23:09.776                             : en:Guilt
  121. 01:28:18.293                             : en:Home
复制代码




                                       
                                       

                                       
                                       
                                       




回复

使用道具 举报

懒得打字嘛,点击右侧快捷回复 【右侧内容,后台自定义】
您需要登录后才可以回帖 登录 | 立即加入

本版积分规则

Archiver|小黑屋| 蓝光电影网 |网站地图

Copyright © 2021 Comsenz Inc. Powered by 蓝光电影网

蓝光电影网

本站内容由用户自主分享和转载自互联网,转载目的在于传递更多信息,并不代表本网赞同其观点和对其真实性负责。

如有侵权、违反国家法律政策行为,请联系我们,我们会第一时间及时清除和处理!

举报反馈邮箱:[email protected]

快速回复 返回顶部 返回列表