找回密码

蓝光电影网

查看: 602|回复: 5

[REMUX.HEVC] 悍女 Brimstone.2016.2160p.BluRay.REMUX.HEVC.DTS-HD.MA.5.1-FGT 76.70GB

[复制链接]
蓝光币
733
发表于 2021-10-29 10:27:57 | 显示全部楼层 |阅读模式


◎译  名 悍女/Koolhoven's Brimstone/炼狱之苦/石女/走过炼狱的女人(台)
◎片  名 Brimstone
◎年  代 2016
◎产  地 荷兰,法国,德国,比利时,瑞典,英国
◎类  别 悬疑 / 惊悚 / 西部
◎语  言 英语,荷兰语
◎上映日期 2016-09-03(威尼斯电影节) / 2017-01-12(荷兰)
◎豆瓣评分 6.8/10 from 3153 users
◎豆瓣链接 https://movie.douban.com/subject/6874166/
◎片  长 148分钟
◎导  演 马丁·寇霍文 Martin Koolhoven
◎编  剧 马丁·寇霍文 Martin Koolhoven
◎主  演 达科塔·范宁 Dakota Fanning
       盖·皮尔斯 Guy Pearce
       基特·哈灵顿 Kit Harington
       卡里斯·范·侯登 Carice van Houten
       保罗·安德森 Paul Anderson
       艾米莉亚·琼斯 Emilia Jones
       艾薇·乔治 Ivy George
       薇拉·维塔利 Vera Vitali
       威廉·休斯顿 William Houston
       卡拉·朱里 Carla Juri
       杰克·罗思 Jack Roth
       娜奥米·巴特里克 Naomi Battrick
       艾德里安·斯帕克斯 Adrian Sparks
       多里斯·洛夫 Dorian Lough
       杰克·霍林顿 Jack Hollington
       Alexandra Guelff Alexandra Guelff
       比尔·坦拉蒂 Bill Tangradi
       泰格·格南德特 Tygo Gernandt
◎标  签 西部 | 犯罪 | 惊悚 | 悬疑 | 荷兰 | 宗教 | 剧情 | 2016
◎简  介


  故事发生在十七世纪的美国西部小镇中,哑女丽姿(达科塔·范宁 Dakota Fanning 饰)和丈夫伊莱(威廉·休斯顿 William Houston 饰)带着他们的孩子们生活在那边。虽然日子清贫,而丽姿又天生得了残疾,可是两人都对今朝稳定的生活心满足足。
  
  一天,镇上来了一位神父(盖·皮尔斯 Guy Pearce 饰),在见到神父第一面时,丽姿就晓得,她的幸运生活将一去不复返,神父和丽姿到底有着怎样的过节以致于他要如此无情的迫害她和她的家人呢?丽姿是一位助产士,在一次手术中,孕妇出现了生命危险,在母亲和孩子只能保一个的情况下,丽姿挑选了庇护母亲,却不知,这挑选亦将她推向了万劫不复的深渊。
◎获奖情况
  第73届威尼斯电影节 ?(2016)
  主比赛单元金狮奖(提名) 马丁·寇霍文
  
  第30届欧洲电影奖 ?(2017)
  最好打扮设想
  1. Video
  2. ID                                       : 1
  3. ID in the original source medium         : 4113 (0x1011)
  4. Format                                   : HEVC
  5. Format/Info                              : High Efficiency Video Coding
  6. Format profile                           : Main [email protected]@High
  7. HDR format                               : SMPTE ST 2086, HDR10 compatible
  8. Codec ID                                 : V_MPEGH/ISO/HEVC
  9. Duration                                 : 2 h 28 min
  10. Bit rate                                 : 68.7 Mb/s
  11. Width                                    : 3 840 pixels
  12. Height                                   : 2 160 pixels
  13. Display aspect ratio                     : 16:9
  14. Frame rate mode                          : Constant
  15. Frame rate                               : 23.976 (24000/1001/189150) FPS
  16. Color space                              : YUV
  17. Chroma subsampling                       : 4:2:0 (Type 2)
  18. Bit depth                                : 10 bits
  19. Bits/(Pixel*Frame)                       : 0.346
  20. Stream size                              : 71.3 GiB (93%)
  21. Language                                 : English
  22. Default                                  : No
  23. Forced                                   : No
  24. Color range                              : Limited
  25. Color primaries                          : BT.2020
  26. Transfer characteristics                 : PQ
  27. Matrix coefficients                      : BT.2020 non-constant
  28. Mastering display color primaries        : BT.2020
  29. Mastering display luminance              : min: 0.0001 cd/m2, max: 1000 cd/m2
  30. Maximum Content Light Level              : 1000 cd/m2
  31. Maximum Frame-Average Light Level        : 400 cd/m2
  32. Original source medium                   : Blu-ray

  33. Audio #1
  34. ID                                       : 2
  35. ID in the original source medium         : 4353 (0x1101)
  36. Format                                   : DTS XLL
  37. Format/Info                              : Digital Theater Systems
  38. Commercial name                          : DTS-HD Master Audio
  39. Codec ID                                 : A_DTS
  40. Duration                                 : 2 h 28 min
  41. Bit rate mode                            : Variable
  42. Bit rate                                 : 3 004 kb/s
  43. Channel(s)                               : 6 channels
  44. Channel layout                           : C L R Ls Rs LFE
  45. Sampling rate                            : 48.0 kHz
  46. Frame rate                               : 93.750 FPS (512 SPF)
  47. Bit depth                                : 24 bits
  48. Compression mode                         : Lossless
  49. Stream size                              : 3.12 GiB (4%)
  50. Title                                    : DTS-HD MA 5.1
  51. Language                                 : English
  52. Default                                  : Yes
  53. Forced                                   : No
  54. Original source medium                   : Blu-ray

  55. Audio #2
  56. ID                                       : 3
  57. Format                                   : AC-3
  58. Format/Info                              : Audio Coding 3
  59. Commercial name                          : Dolby Digital
  60. Codec ID                                 : A_AC3
  61. Duration                                 : 2 h 28 min
  62. Bit rate mode                            : Constant
  63. Bit rate                                 : 640 kb/s
  64. Channel(s)                               : 6 channels
  65. Channel layout                           : L R C LFE Ls Rs
  66. Sampling rate                            : 48.0 kHz
  67. Frame rate                               : 31.250 FPS (1536 SPF)
  68. Compression mode                         : Lossy
  69. Stream size                              : 680 MiB (1%)
  70. Title                                    : DD 5.1
  71. Language                                 : English
  72. Service kind                             : Complete Main
  73. Default                                  : No
  74. Forced                                   : No

  75. Audio #3
  76. ID                                       : 4
  77. ID in the original source medium         : 4352 (0x1100)
  78. Format                                   : DTS XLL
  79. Format/Info                              : Digital Theater Systems
  80. Commercial name                          : DTS-HD Master Audio
  81. Codec ID                                 : A_DTS
  82. Duration                                 : 2 h 28 min
  83. Bit rate mode                            : Variable
  84. Bit rate                                 : 1 550 kb/s
  85. Channel(s)                               : 6 channels
  86. Channel layout                           : C L R Ls Rs LFE
  87. Sampling rate                            : 48.0 kHz
  88. Frame rate                               : 93.750 FPS (512 SPF)
  89. Bit depth                                : 16 bits
  90. Compression mode                         : Lossless
  91. Stream size                              : 1.61 GiB (2%)
  92. Title                                    : DTS-HD MA 5.1
  93. Language                                 : German
  94. Default                                  : No
  95. Forced                                   : No
  96. Original source medium                   : Blu-ray

  97. Text #1
  98. ID                                       : 5
  99. Format                                   : UTF-8
  100. Codec ID                                 : S_TEXT/UTF8
  101. Codec ID/Info                            : UTF-8 Plain Text
  102. Duration                                 : 2 h 0 min
  103. Bit rate                                 : 0 b/s
  104. Count of elements                        : 30
  105. Stream size                              : 809 Bytes (0%)
  106. Title                                    : FORCED
  107. Language                                 : English
  108. Default                                  : No
  109. Forced                                   : Yes

  110. Text #2
  111. ID                                       : 6
  112. Format                                   : UTF-8
  113. Codec ID                                 : S_TEXT/UTF8
  114. Codec ID/Info                            : UTF-8 Plain Text
  115. Duration                                 : 2 h 18 min
  116. Bit rate                                 : 27 b/s
  117. Count of elements                        : 849
  118. Stream size                              : 28.1 KiB (0%)
  119. Language                                 : English
  120. Default                                  : Yes
  121. Forced                                   : No

  122. Text #3
  123. ID                                       : 7
  124. ID in the original source medium         : 4768 (0x12A0)
  125. Format                                   : PGS
  126. Muxing mode                              : zlib
  127. Codec ID                                 : S_HDMV/PGS
  128. Codec ID/Info                            : Picture based subtitle format used on BDs/HD-DVDs
  129. Duration                                 : 2 h 18 min
  130. Bit rate                                 : 19.0 kb/s
  131. Count of elements                        : 2233
  132. Stream size                              : 18.9 MiB (0%)
  133. Language                                 : German
  134. Default                                  : No
  135. Forced                                   : No
  136. Original source medium                   : Blu-ray

  137. Text #4
  138. ID                                       : 8
  139. ID in the original source medium         : 4769 (0x12A1)
  140. Format                                   : PGS
  141. Muxing mode                              : zlib
  142. Codec ID                                 : S_HDMV/PGS
  143. Codec ID/Info                            : Picture based subtitle format used on BDs/HD-DVDs
  144. Duration                                 : 2 h 6 min
  145. Bit rate                                 : 1 170 b/s
  146. Count of elements                        : 148
  147. Stream size                              : 1.06 MiB (0%)
  148. Title                                    : FORCED
  149. Language                                 : German
  150. Default                                  : No
  151. Forced                                   : No
  152. Original source medium                   : Blu-ray

  153. Text #5
  154. ID                                       : 9
  155. ID in the original source medium         : 4770 (0x12A2)
  156. Format                                   : PGS
  157. Muxing mode                              : zlib
  158. Codec ID                                 : S_HDMV/PGS
  159. Codec ID/Info                            : Picture based subtitle format used on BDs/HD-DVDs
  160. Duration                                 : 2 h 0 min
  161. Bit rate                                 : 520 b/s
  162. Count of elements                        : 60
  163. Stream size                              : 459 KiB (0%)
  164. Title                                    : FORCED
  165. Language                                 : English
  166. Default                                  : No
  167. Forced                                   : No
  168. Original source medium                   : Blu-ray

  169. Menu
  170. 00:00:00.000                             : en:Chapter 01
  171. 00:02:01.121                             : en:Chapter 02
  172. 00:12:08.436                             : en:Chapter 03
  173. 00:24:12.868                             : en:Chapter 04
  174. 00:32:38.623                             : en:Chapter 05
  175. 00:42:40.474                             : en:Chapter 06
  176. 00:56:03.568                             : en:Chapter 07
  177. 01:09:09.103                             : en:Chapter 08
  178. 01:17:12.085                             : en:Chapter 09
  179. 01:24:54.255                             : en:Chapter 10
  180. 01:37:53.993                             : en:Chapter 11
  181. 01:50:46.723                             : en:Chapter 12
  182. 01:56:09.587                             : en:Chapter 13
  183. 02:03:23.604                             : en:Chapter 14
  184. 02:14:08.957                             : en:Chapter 15
  185. 02:20:12.278                             : en:Chapter 16
复制代码




                                       
                                       

                                       
                                       
                                       




回复

使用道具 举报

蓝光币
32
发表于 2021-10-29 13:37:48 | 显示全部楼层
顶顶顶顶顶顶
回复 支持 反对

使用道具 举报

蓝光币
189
发表于 2021-10-29 14:00:45 | 显示全部楼层
楼主发贴辛苦了,谢谢楼主分享!我觉得蓝光电影网是注册对了!
回复 支持 反对

使用道具 举报

蓝光币
656
发表于 2021-10-29 14:32:07 | 显示全部楼层
楼主发贴辛苦了,谢谢楼主分享!我觉得蓝光电影网是注册对了!
回复 支持 反对

使用道具 举报

蓝光币
0
发表于 2021-10-29 15:52:08 | 显示全部楼层
楼主发贴辛苦了,谢谢楼主分享!我觉得蓝光电影网是注册对了!
回复 支持 反对

使用道具 举报

蓝光币
80
发表于 2021-10-29 19:22:16 | 显示全部楼层

我看不错噢 谢谢楼主!蓝光电影网越来越好!
回复 支持 反对

使用道具 举报

懒得打字嘛,点击右侧快捷回复 【右侧内容,后台自定义】
您需要登录后才可以回帖 登录 | 立即加入

本版积分规则

Archiver|小黑屋| 蓝光电影网 |网站地图

Copyright © 2021 Comsenz Inc. Powered by 蓝光电影网

蓝光电影网

本站内容由用户自主分享和转载自互联网,转载目的在于传递更多信息,并不代表本网赞同其观点和对其真实性负责。

如有侵权、违反国家法律政策行为,请联系我们,我们会第一时间及时清除和处理!

举报反馈邮箱:[email protected]

快速回复 返回顶部 返回列表