找回密码

蓝光电影网

查看: 381|回复: 2

[REMUX.HEVC] 破胆三次/咆哮 The.Howling.1981.2160p.BluRay.REMUX.HEVC.DTS-HD.MA.5.1-FGT 56.67GB

[复制链接]
蓝光币
733
发表于 2021-10-29 10:07:53 | 显示全部楼层 |阅读模式


◎译  名 破胆三次/咆哮/狼人/群魔乱舞
◎片  名 The Howling
◎年  代 1981
◎产  地 美国
◎类  别 笑剧 / 悬疑 / 可骇
◎语  言 英语,西班牙语
◎上映日期 1981-01-21
◎豆瓣评分 6.3/10 from 353 users
◎豆瓣链接 https://movie.douban.com/subject/1303586/
◎片  长 91 分钟
◎导  演 乔·丹特 Joe Dante
◎编  剧 约翰·塞尔斯 John Sayles / Terence H. Winkless Terence H. Winkless
◎主  演 迪·沃伦斯 Dee Wallace
       帕特里克·麦克尼 Patrick Macnee
       丹尼斯·杜根 Dennis Dugan
       米萨克·泰勒 Meshach Taylor
       Bill Warren Bill Warren
       诺布尔·威林厄姆 Noble Willingham
       迪克·米勒 Dick Miller
       肯尼斯·托比 Kenneth Tobey
       克里斯托弗·斯通 Christopher Stone
       詹姆斯·墨塔夫 James Murtaugh
       斯利姆·佩金斯 Slim Pickens
       Robert A. Burns Robert A. Burns
       约翰·塞尔斯 John Sayles
       罗杰·科曼 Roger Corman
       乔纳森·卡普兰 Jonathan Kaplan
       约翰·卡拉丁 John Carradine
       福里斯特·J·阿克曼 Forrest J. Ackerman
       贝琳达·巴拉斯基 Belinda Balaski
       Elisabeth Brooks Elisabeth Brooks
       Joe Bratcher Joe Bratcher
       Herbie Braha Herbie Braha
       罗伯特·皮卡多 Robert Picardo
       萨丽娜·C·格兰特 Sarina C. Grant
       Margie Impert Margie Impert
       Jim McKrell Jim McKrell
       凯文·麦卡锡 Kevin McCarthy
◎标  签 可骇 | 美国 | 狼人 | 惊悚 | 1981 | 1980s | 美国电影 | 血腥
◎简  介


  After a bizarre and near deadly encounter with a serial killer, a television newswoman is sent to a remote mountain resort whose residents may not be what they seem.
  1. Video
  2. ID                                       : 1
  3. ID in the original source medium         : 4113 (0x1011)
  4. Format                                   : HEVC
  5. Format/Info                              : High Efficiency Video Coding
  6. Format profile                           : Main [email protected]@High
  7. HDR format                               : Dolby Vision, Version 1.0, dvhe.07.06, BL+EL+RPU, Blu-ray compatible / SMPTE ST 2086, HDR10 compatible
  8. Codec ID                                 : V_MPEGH/ISO/HEVC
  9. Duration                                 : 1 h 30 min
  10. Bit rate                                 : 77.2 Mb/s
  11. Width                                    : 3 840 pixels
  12. Height                                   : 2 160 pixels
  13. Display aspect ratio                     : 16:9
  14. Frame rate mode                          : Constant
  15. Frame rate                               : 24.000 FPS
  16. Color space                              : YUV
  17. Chroma subsampling                       : 4:2:0 (Type 2)
  18. Bit depth                                : 10 bits
  19. Bits/(Pixel*Frame)                       : 0.388
  20. Stream size                              : 48.9 GiB (86%)
  21. Language                                 : English
  22. Default                                  : No
  23. Forced                                   : No
  24. Color range                              : Limited
  25. Color primaries                          : BT.2020
  26. Transfer characteristics                 : PQ
  27. Matrix coefficients                      : BT.2020 non-constant
  28. Mastering display color primaries        : Display P3
  29. Mastering display luminance              : min: 0.0001 cd/m2, max: 1000 cd/m2
  30. Maximum Content Light Level              : 9992 cd/m2
  31. Maximum Frame-Average Light Level        : 9984 cd/m2
  32. Original source medium                   : Blu-ray
  33. Audio #1
  34. ID                                       : 2
  35. ID in the original source medium         : 4353 (0x1101)
  36. Format                                   : DTS XLL
  37. Format/Info                              : Digital Theater Systems
  38. Commercial name                          : DTS-HD Master Audio
  39. Codec ID                                 : A_DTS
  40. Duration                                 : 1 h 30 min
  41. Bit rate mode                            : Variable
  42. Bit rate                                 : 3 670 kb/s
  43. Channel(s)                               : 6 channels
  44. Channel layout                           : C L R Ls Rs LFE
  45. Sampling rate                            : 48.0 kHz
  46. Frame rate                               : 93.750 FPS (512 SPF)
  47. Bit depth                                : 24 bits
  48. Compression mode                         : Lossless
  49. Stream size                              : 2.32 GiB (4%)
  50. Title                                    : DTS-HD MA 5.1
  51. Language                                 : English
  52. Default                                  : Yes
  53. Forced                                   : No
  54. Original source medium                   : Blu-ray
  55. Audio #2
  56. ID                                       : 3
  57. Format                                   : AC-3
  58. Format/Info                              : Audio Coding 3
  59. Commercial name                          : Dolby Digital
  60. Codec ID                                 : A_AC3
  61. Duration                                 : 1 h 30 min
  62. Bit rate mode                            : Constant
  63. Bit rate                                 : 640 kb/s
  64. Channel(s)                               : 6 channels
  65. Channel layout                           : L R C LFE Ls Rs
  66. Sampling rate                            : 48.0 kHz
  67. Frame rate                               : 31.250 FPS (1536 SPF)
  68. Compression mode                         : Lossy
  69. Stream size                              : 415 MiB (1%)
  70. Title                                    : DD 5.1
  71. Language                                 : English
  72. Service kind                             : Complete Main
  73. Default                                  : No
  74. Forced                                   : No
  75. Audio #3
  76. ID                                       : 4
  77. ID in the original source medium         : 4352 (0x1100)
  78. Format                                   : DTS XLL
  79. Format/Info                              : Digital Theater Systems
  80. Commercial name                          : DTS-HD Master Audio
  81. Codec ID                                 : A_DTS
  82. Duration                                 : 1 h 30 min
  83. Bit rate mode                            : Variable
  84. Bit rate                                 : 3 307 kb/s
  85. Channel(s)                               : 6 channels
  86. Channel layout                           : C L R Ls Rs LFE
  87. Sampling rate                            : 48.0 kHz
  88. Frame rate                               : 93.750 FPS (512 SPF)
  89. Bit depth                                : 24 bits
  90. Compression mode                         : Lossless
  91. Stream size                              : 2.09 GiB (4%)
  92. Title                                    : DTS-HD MA 5.1
  93. Language                                 : German
  94. Default                                  : No
  95. Forced                                   : No
  96. Original source medium                   : Blu-ray
  97. Audio #4
  98. ID                                       : 5
  99. ID in the original source medium         : 4354 (0x1102)
  100. Format                                   : PCM
  101. Format settings                          : Little / Signed
  102. Codec ID                                 : A_PCM/INT/LIT
  103. Duration                                 : 1 h 30 min
  104. Bit rate mode                            : Constant
  105. Bit rate                                 : 2 304 kb/s
  106. Channel(s)                               : 2 channels
  107. Sampling rate                            : 48.0 kHz
  108. Frame rate                               : 30.000 FPS (1600 SPF)
  109. Bit depth                                : 24 bits
  110. Stream size                              : 1.46 GiB (3%)
  111. Title                                    : LPCM 2.0
  112. Language                                 : English
  113. Default                                  : No
  114. Forced                                   : No
  115. Original source medium                   : Blu-ray
  116. Audio #5
  117. ID                                       : 6
  118. ID in the original source medium         : 4355 (0x1103)
  119. Format                                   : PCM
  120. Format settings                          : Little / Signed
  121. Codec ID                                 : A_PCM/INT/LIT
  122. Duration                                 : 1 h 30 min
  123. Bit rate mode                            : Constant
  124. Bit rate                                 : 2 304 kb/s
  125. Channel(s)                               : 2 channels
  126. Sampling rate                            : 48.0 kHz
  127. Frame rate                               : 30.000 FPS (1600 SPF)
  128. Bit depth                                : 24 bits
  129. Stream size                              : 1.46 GiB (3%)
  130. Title                                    : LPCM 2.0
  131. Language                                 : French
  132. Default                                  : No
  133. Forced                                   : No
  134. Original source medium                   : Blu-ray
  135. Text #1
  136. ID                                       : 7
  137. Format                                   : UTF-8
  138. Codec ID                                 : S_TEXT/UTF8
  139. Codec ID/Info                            : UTF-8 Plain Text
  140. Duration                                 : 1 h 29 min
  141. Bit rate                                 : 36 b/s
  142. Count of elements                        : 675
  143. Stream size                              : 24.0 KiB (0%)
  144. Title                                    : SRT
  145. Language                                 : English
  146. Default                                  : Yes
  147. Forced                                   : No
  148. Text #2
  149. ID                                       : 8
  150. ID in the original source medium         : 4769 (0x12A1)
  151. Format                                   : PGS
  152. Muxing mode                              : zlib
  153. Codec ID                                 : S_HDMV/PGS
  154. Codec ID/Info                            : Picture based subtitle format used on BDs/HD-DVDs
  155. Duration                                 : 1 h 29 min
  156. Bit rate                                 : 22.1 kb/s
  157. Count of elements                        : 1350
  158. Stream size                              : 14.1 MiB (0%)
  159. Language                                 : English
  160. Default                                  : No
  161. Forced                                   : No
  162. Original source medium                   : Blu-ray
  163. Text #3
  164. ID                                       : 9
  165. ID in the original source medium         : 4768 (0x12A0)
  166. Format                                   : PGS
  167. Muxing mode                              : zlib
  168. Codec ID                                 : S_HDMV/PGS
  169. Codec ID/Info                            : Picture based subtitle format used on BDs/HD-DVDs
  170. Duration                                 : 1 h 29 min
  171. Bit rate                                 : 23.3 kb/s
  172. Count of elements                        : 1486
  173. Stream size                              : 15.0 MiB (0%)
  174. Language                                 : German
  175. Default                                  : No
  176. Forced                                   : No
  177. Original source medium                   : Blu-ray
  178. Text #4
  179. ID                                       : 10
  180. ID in the original source medium         : 4770 (0x12A2)
  181. Format                                   : PGS
  182. Muxing mode                              : zlib
  183. Codec ID                                 : S_HDMV/PGS
  184. Codec ID/Info                            : Picture based subtitle format used on BDs/HD-DVDs
  185. Duration                                 : 1 h 29 min
  186. Bit rate                                 : 19.3 kb/s
  187. Count of elements                        : 1618
  188. Stream size                              : 12.4 MiB (0%)
  189. Language                                 : French
  190. Default                                  : No
  191. Forced                                   : No
  192. Original source medium                   : Blu-ray
  193. Text #5
  194. ID                                       : 11
  195. ID in the original source medium         : 4771 (0x12A3)
  196. Format                                   : PGS
  197. Muxing mode                              : zlib
  198. Codec ID                                 : S_HDMV/PGS
  199. Codec ID/Info                            : Picture based subtitle format used on BDs/HD-DVDs
  200. Duration                                 : 1 h 26 min
  201. Bit rate                                 : 554 b/s
  202. Count of elements                        : 30
  203. Stream size                              : 350 KiB (0%)
  204. Title                                    : FORCED
  205. Language                                 : German
  206. Default                                  : No
  207. Forced                                   : No
  208. Original source medium                   : Blu-ray
  209. Text #6
  210. ID                                       : 12
  211. ID in the original source medium         : 4772 (0x12A4)
  212. Format                                   : PGS
  213. Muxing mode                              : zlib
  214. Codec ID                                 : S_HDMV/PGS
  215. Codec ID/Info                            : Picture based subtitle format used on BDs/HD-DVDs
  216. Duration                                 : 1 h 29 min
  217. Bit rate                                 : 460 b/s
  218. Count of elements                        : 32
  219. Stream size                              : 302 KiB (0%)
  220. Title                                    : FORCED
  221. Language                                 : French
  222. Default                                  : No
  223. Forced                                   : No
  224. Original source medium                   : Blu-ray
  225. Menu
  226. 00:00:00.000                             : en:Chapter 01
  227. 00:07:39.875                             : en:Chapter 02
  228. 00:14:53.791                             : en:Chapter 03
  229. 00:22:20.875                             : en:Chapter 04
  230. 00:30:05.208                             : en:Chapter 05
  231. 00:37:51.333                             : en:Chapter 06
  232. 00:45:32.625                             : en:Chapter 07
  233. 00:51:36.375                             : en:Chapter 08
  234. 01:00:58.250                             : en:Chapter 09
  235. 01:05:59.333                             : en:Chapter 10
  236. 01:15:12.541                             : en:Chapter 11
  237. 01:24:08.083                             : en:Chapter 12
复制代码




                                       
                                       

                                       
                                       
                                       




回复

使用道具 举报

蓝光币
651
发表于 2021-10-29 13:45:54 | 显示全部楼层
不错,收下了。
回复 支持 反对

使用道具 举报

蓝光币
656
发表于 2021-10-29 14:33:32 | 显示全部楼层
楼主发贴辛苦了,谢谢楼主分享!我觉得蓝光电影网是注册对了!
回复 支持 反对

使用道具 举报

懒得打字嘛,点击右侧快捷回复 【右侧内容,后台自定义】
您需要登录后才可以回帖 登录 | 立即加入

本版积分规则

Archiver|小黑屋| 蓝光电影网 |网站地图

Copyright © 2021 Comsenz Inc. Powered by 蓝光电影网

蓝光电影网

本站内容由用户自主分享和转载自互联网,转载目的在于传递更多信息,并不代表本网赞同其观点和对其真实性负责。

如有侵权、违反国家法律政策行为,请联系我们,我们会第一时间及时清除和处理!

举报反馈邮箱:[email protected]

快速回复 返回顶部 返回列表