找回密码

蓝光电影网

查看: 200|回复: 0

[剧情] 光之屋 The.Lighthouse.2006.RUSSIAN.1080p.BluRay.x264.FLAC2.0-HANDJOB 6.70GB

[复制链接]
蓝光币
682
发表于 2021-10-29 10:49:38 | 显示全部楼层 |阅读模式


◎译  名 光之屋/Mayak/The Lighthouse/灯塔
◎片  名 Маяк
◎年  代 2006
◎产  地 俄罗斯,亚美尼亚
◎类  别 剧情
◎语  言 俄语
◎上映日期 2007-05-01
◎豆瓣评分 7.6/10 from 232 users
◎豆瓣链接 https://movie.douban.com/subject/3233564/
◎片  长 80分钟
◎导  演 玛丽亚·塞克亚 Mariya Saakyan
◎编  剧 Givi Shavgulidze Givi Shavgulidze
◎主  演 Anna Kapaleva
       索斯·萨尔格相 Sos Sargsyan
       索菲柯·齐阿乌列里 Sofiko Chiaureli
◎标  签 亚美尼亚 | 俄罗斯 | 战争 | 俄罗斯电影 | 苏俄 | 高加索 | 2000s | 2006
◎简  介


  列车随记忆徐徐前驶,她回到昔时由于战乱而逃离的故乡,想要接走留在故乡的祖母,但此次,就自己也找不到分开的火车了。当亡命、烽火、饥饿、灭亡逼使一切人退至保存的绝境,当故乡的一切都只剩下透光的残缺屋瓦,究竟还有什么可以依靠乡愁与忖量?
  
  导演以布满感情的凝敛影象,将发生于九零年月高加索地域的战乱悲剧,转化为小我对国族的感性思考,一幕幕诗意的画面层层堆叠,我们恍如也随着剧中人的流浪,在历史与时代的迷雾中盘桓,走进塔可夫斯基的风光中。
  1. Video
  2. ID                                       : 1
  3. Format                                   : AVC
  4. Format/Info                              : Advanced Video Codec
  5. Format profile                           : [email protected]
  6. Format settings                          : CABAC / 4 Ref Frames
  7. Format settings, CABAC                   : Yes
  8. Format settings, Reference frames        : 4 frames
  9. Codec ID                                 : V_MPEG4/ISO/AVC
  10. Duration                                 : 1 h 18 min
  11. Bit rate                                 : 11.6 Mb/s
  12. Width                                    : 1 920 pixels
  13. Height                                   : 1 036 pixels
  14. Display aspect ratio                     : 1.85:1
  15. Frame rate mode                          : Constant
  16. Frame rate                               : 24.000 FPS
  17. Color space                              : YUV
  18. Chroma subsampling                       : 4:2:0
  19. Bit depth                                : 8 bits
  20. Scan type                                : Progressive
  21. Bits/(Pixel*Frame)                       : 0.243
  22. Stream size                              : 6.35 GiB (95%)
  23. Writing library                          : x264 core 163 r3059 b684ebe0
  24. Encoding settings                        : cabac=1 / ref=4 / deblock=1:-3:-3 / analyse=0x3:0x133 / me=umh / subme=10 / psy=1 / psy_rd=1.00:0.00 / mixed_ref=1 / me_range=32 / chroma_me=1 / trellis=2 / 8x8dct=1 / cqm=0 / deadzone=21,11 / fast_pskip=0 / chroma_qp_offset=-2 / threads=12 / lookahead_threads=3 / sliced_threads=0 / nr=0 / decimate=0 / interlaced=0 / bluray_compat=0 / constrained_intra=0 / bframes=16 / b_pyramid=2 / b_adapt=2 / b_bias=0 / direct=3 / weightb=1 / open_gop=0 / weightp=2 / keyint=240 / keyint_min=24 / scenecut=40 / intra_refresh=0 / rc_lookahead=60 / rc=crf / mbtree=0 / crf=21.2 / qcomp=0.60 / qpmin=0 / qpmax=69 / qpstep=4 / vbv_maxrate=62500 / vbv_bufsize=78125 / crf_max=0.0 / nal_hrd=none / filler=0 / ip_ratio=1.40 / pb_ratio=1.30 / aq=2:1.00
  25. Default                                  : Yes
  26. Forced                                   : No
  27. Color range                              : Limited
  28. Color primaries                          : BT.709
  29. Transfer characteristics                 : BT.709
  30. Matrix coefficients                      : BT.709
  31. Audio
  32. ID                                       : 2
  33. Format                                   : FLAC
  34. Format/Info                              : Free Lossless Audio Codec
  35. Codec ID                                 : A_FLAC
  36. Duration                                 : 1 h 18 min
  37. Bit rate mode                            : Variable
  38. Bit rate                                 : 646 kb/s
  39. Channel(s)                               : 2 channels
  40. Sampling rate                            : 48.0 kHz
  41. Frame rate                               : 11.719 FPS (4096 SPF)
  42. Bit depth                                : 16 bits
  43. Compression mode                         : Lossless
  44. Stream size                              : 362 MiB (5%)
  45. Writing library                          : libFLAC 1.2.1 (UTC 2007-09-17)
  46. Language                                 : Russian
  47. Default                                  : Yes
  48. Forced                                   : No
  49. Text #1
  50. ID                                       : 3
  51. Format                                   : UTF-8
  52. Codec ID                                 : S_TEXT/UTF8
  53. Codec ID/Info                            : UTF-8 Plain Text
  54. Duration                                 : 1 h 13 min
  55. Bit rate                                 : 20 b/s
  56. Count of elements                        : 415
  57. Stream size                              : 11.2 KiB (0%)
  58. Language                                 : English
  59. Default                                  : Yes
  60. Forced                                   : No
  61. Text #2
  62. ID                                       : 4
  63. Format                                   : UTF-8
  64. Codec ID                                 : S_TEXT/UTF8
  65. Codec ID/Info                            : UTF-8 Plain Text
  66. Duration                                 : 1 h 13 min
  67. Bit rate                                 : 24 b/s
  68. Count of elements                        : 417
  69. Stream size                              : 13.1 KiB (0%)
  70. Language                                 : French
  71. Default                                  : No
  72. Forced                                   : No
  73. Text #3
  74. ID                                       : 5
  75. Format                                   : UTF-8
  76. Codec ID                                 : S_TEXT/UTF8
  77. Codec ID/Info                            : UTF-8 Plain Text
  78. Duration                                 : 1 h 9 min
  79. Bit rate                                 : 25 b/s
  80. Count of elements                        : 410
  81. Stream size                              : 12.8 KiB (0%)
  82. Language                                 : German
  83. Default                                  : No
  84. Forced                                   : No
  85. Text #4
  86. ID                                       : 6
  87. Format                                   : UTF-8
  88. Codec ID                                 : S_TEXT/UTF8
  89. Codec ID/Info                            : UTF-8 Plain Text
  90. Duration                                 : 1 h 2 min
  91. Bit rate                                 : 24 b/s
  92. Count of elements                        : 400
  93. Stream size                              : 11.2 KiB (0%)
  94. Language                                 : Italian
  95. Default                                  : No
  96. Forced                                   : No
  97. Text #5
  98. ID                                       : 7
  99. Format                                   : UTF-8
  100. Codec ID                                 : S_TEXT/UTF8
  101. Codec ID/Info                            : UTF-8 Plain Text
  102. Duration                                 : 1 h 13 min
  103. Bit rate                                 : 22 b/s
  104. Count of elements                        : 413
  105. Stream size                              : 12.4 KiB (0%)
  106. Language                                 : Portuguese
  107. Default                                  : No
  108. Forced                                   : No
  109. Text #6
  110. ID                                       : 8
  111. Format                                   : UTF-8
  112. Codec ID                                 : S_TEXT/UTF8
  113. Codec ID/Info                            : UTF-8 Plain Text
  114. Duration                                 : 1 h 13 min
  115. Bit rate                                 : 22 b/s
  116. Count of elements                        : 415
  117. Stream size                              : 11.9 KiB (0%)
  118. Language                                 : Spanish
  119. Default                                  : No
  120. Forced                                   : No
  121. Text #7
  122. ID                                       : 9
  123. Format                                   : UTF-8
  124. Codec ID                                 : S_TEXT/UTF8
  125. Codec ID/Info                            : UTF-8 Plain Text
  126. Duration                                 : 1 h 13 min
  127. Bit rate                                 : 23 b/s
  128. Count of elements                        : 415
  129. Stream size                              : 12.7 KiB (0%)
  130. Language                                 : Turkish
  131. Default                                  : No
  132. Forced                                   : No
  133. Menu
  134. 00:00:00.000                             : :Chapter 1
  135. 00:08:01.417                             : :Chapter 2
  136. 00:14:31.583                             : :Chapter 3
  137. 00:24:16.208                             : :Chapter 4
  138. 00:33:23.042                             : :Chapter 5
  139. 00:36:40.458                             : :Chapter 6
  140. 00:44:44.750                             : :Chapter 7
  141. 00:49:49.667                             : :Chapter 8
  142. 00:54:48.500                             : :Chapter 9
  143. 00:59:31.458                             : :Chapter 10
  144. 01:06:55.833                             : :Chapter 11
  145. 01:12:40.000                             : :Chapter 12
复制代码







                                       
                                       

                                       
                                       
                                       




回复

使用道具 举报

懒得打字嘛,点击右侧快捷回复 【右侧内容,后台自定义】
您需要登录后才可以回帖 登录 | 立即加入

本版积分规则

Archiver|小黑屋| 蓝光电影网 |网站地图

Copyright © 2021 Comsenz Inc. Powered by 蓝光电影网

蓝光电影网

本站内容由用户自主分享和转载自互联网,转载目的在于传递更多信息,并不代表本网赞同其观点和对其真实性负责。

如有侵权、违反国家法律政策行为,请联系我们,我们会第一时间及时清除和处理!

举报反馈邮箱:[email protected]

快速回复 返回顶部 返回列表