找回密码

蓝光电影网

查看: 360|回复: 1

[剧情] 食人族 Cannibal.Man.1972.THEATRICAL.1080p.BluRay.x264-WATCHABLE 8.17GB

[复制链接]
蓝光币
682
发表于 2021-10-29 11:37:51 | 显示全部楼层 |阅读模式


◎译  名 食人族/La semana del asesino/The Cannibal Man
◎片  名 La semana del asesino
◎年  代 1972
◎产  地 西班牙
◎类  别 剧情 / 惊悚
◎语  言 西班牙语
◎上映日期 1972-04-22
◎豆瓣评分 /10 from 0 users
◎豆瓣链接 https://movie.douban.com/subject/2131432/
◎片  长 UK: 98 分钟
◎导  演 埃洛伊·德拉·伊格莱西亚 Eloy de la Iglesia
◎编  剧 埃洛伊·德拉·伊格莱西亚 Eloy de la Iglesia / 迪克·兰德尔 Dick Randall
◎主  演 Fernando Sánchez Polack Fernando Sánchez Polack
       伊斯梅尔·梅洛 Ismael Merlo
       Goyo Lebrero Goyo Lebrero
       Vicky Lagos Vicky Lagos
       Lola Herrera Lola Herrera
       拉斐尔·埃尔南德斯 Rafael Hernández
       José Franco José Franco
       Paca Gabaldón Paca Gabaldón
       沙利·布拉沃 Charly Bravo
       欧塞维奥·庞塞拉 Eusebio Poncela
       艾玛·科恩 Emma Cohen
       安东尼奥·德·雷阿 Antonio del Real
       文森特·帕拉 Vicente Parra
◎标  签 食人族 | 食人族系列 | 可骇 | 欧美 | 西班牙电影 | 国外电影 | 西班牙 | 惊悚
◎简  介


  暂无相关剧情先容
  1. Video
  2. ID                                       : 1
  3. Format                                   : AVC
  4. Format/Info                              : Advanced Video Codec
  5. Format profile                           : [email protected]
  6. Format settings                          : CABAC / 4 Ref Frames
  7. Format settings, CABAC                   : Yes
  8. Format settings, Reference frames        : 4 frames
  9. Codec ID                                 : V_MPEG4/ISO/AVC
  10. Duration                                 : 1 h 38 min
  11. Bit rate                                 : 10.5 Mb/s
  12. Width                                    : 1 920 pixels
  13. Height                                   : 1 036 pixels
  14. Display aspect ratio                     : 1.85:1
  15. Original display aspect ratio            : 1.85:1
  16. Frame rate mode                          : Constant
  17. Frame rate                               : 23.976 (24000/1001/189150) FPS
  18. Color space                              : YUV
  19. Chroma subsampling                       : 4:2:0
  20. Bit depth                                : 8 bits
  21. Scan type                                : Progressive
  22. Bits/(Pixel*Frame)                       : 0.221
  23. Stream size                              : 7.24 GiB (89%)
  24. Writing library                          : x264 core 164 r3075 66a5bc1
  25. Encoding settings                        : cabac=1 / ref=4 / deblock=1:0:0 / analyse=0x3:0x133 / me=umh / subme=9 / psy=1 / psy_rd=1.00:0.00 / mixed_ref=1 / me_range=16 / chroma_me=1 / trellis=2 / 8x8dct=1 / cqm=0 / deadzone=21,11 / fast_pskip=1 / chroma_qp_offset=-2 / threads=12 / lookahead_threads=1 / sliced_threads=0 / nr=0 / decimate=1 / interlaced=0 / bluray_compat=0 / constrained_intra=0 / bframes=3 / b_pyramid=2 / b_adapt=2 / b_bias=0 / direct=3 / weightb=1 / open_gop=0 / weightp=2 / keyint=250 / keyint_min=23 / scenecut=40 / intra_refresh=0 / rc_lookahead=60 / rc=crf / mbtree=1 / crf=22.0 / qcomp=0.60 / qpmin=0 / qpmax=69 / qpstep=4 / ip_ratio=1.40 / aq=1:1.00
  26. Default                                  : Yes
  27. Forced                                   : No
  28. Color range                              : Limited
  29. Color primaries                          : BT.709
  30. Transfer characteristics                 : BT.709
  31. Matrix coefficients                      : BT.709
  32. Audio #1
  33. ID                                       : 2
  34. Format                                   : FLAC
  35. Format/Info                              : Free Lossless Audio Codec
  36. Codec ID                                 : A_FLAC
  37. Duration                                 : 1 h 38 min
  38. Bit rate mode                            : Variable
  39. Bit rate                                 : 1 118 kb/s
  40. Channel(s)                               : 2 channels
  41. Channel layout                           : L R
  42. Sampling rate                            : 48.0 kHz
  43. Frame rate                               : 10.417 FPS (4608 SPF)
  44. Bit depth                                : 24 bits
  45. Compression mode                         : Lossless
  46. Stream size                              : 787 MiB (9%)
  47. Title                                    : Spanish
  48. Writing library                          : Lavf59.0.101
  49. Language                                 : Spanish
  50. Default                                  : Yes
  51. Forced                                   : No
  52. Audio #2
  53. ID                                       : 3
  54. Format                                   : FLAC
  55. Format/Info                              : Free Lossless Audio Codec
  56. Codec ID                                 : A_FLAC
  57. Duration                                 : 1 h 38 min
  58. Bit rate mode                            : Variable
  59. Bit rate                                 : 220 kb/s
  60. Channel(s)                               : 2 channels
  61. Channel layout                           : L R
  62. Sampling rate                            : 48.0 kHz
  63. Frame rate                               : 10.417 FPS (4608 SPF)
  64. Bit depth                                : 24 bits
  65. Compression mode                         : Lossless
  66. Stream size                              : 155 MiB (2%)
  67. Title                                    : English
  68. Writing library                          : Lavf59.0.101
  69. Language                                 : English
  70. Default                                  : No
  71. Forced                                   : No
  72. Text #1
  73. ID                                       : 4
  74. Format                                   : UTF-8
  75. Codec ID                                 : S_TEXT/UTF8
  76. Codec ID/Info                            : UTF-8 Plain Text
  77. Duration                                 : 1 h 37 min
  78. Bit rate                                 : 47 b/s
  79. Count of elements                        : 1215
  80. Stream size                              : 33.5 KiB (0%)
  81. Title                                    : English SDH SRT
  82. Language                                 : English
  83. Default                                  : Yes
  84. Forced                                   : Yes
  85. Text #2
  86. ID                                       : 5
  87. Format                                   : UTF-8
  88. Codec ID                                 : S_TEXT/UTF8
  89. Codec ID/Info                            : UTF-8 Plain Text
  90. Duration                                 : 1 h 34 min
  91. Bit rate                                 : 42 b/s
  92. Count of elements                        : 882
  93. Stream size                              : 29.4 KiB (0%)
  94. Title                                    : English Full SRT
  95. Language                                 : English
  96. Default                                  : No
  97. Forced                                   : No
  98. Text #3
  99. ID                                       : 6
  100. Format                                   : PGS
  101. Muxing mode                              : zlib
  102. Codec ID                                 : S_HDMV/PGS
  103. Codec ID/Info                            : Picture based subtitle format used on BDs/HD-DVDs
  104. Duration                                 : 1 h 34 min
  105. Bit rate                                 : 25.7 kb/s
  106. Count of elements                        : 1642
  107. Stream size                              : 17.4 MiB (0%)
  108. Title                                    : English Full PGS
  109. Language                                 : English
  110. Default                                  : No
  111. Forced                                   : No
  112. Text #4
  113. ID                                       : 7
  114. Format                                   : PGS
  115. Muxing mode                              : zlib
  116. Codec ID                                 : S_HDMV/PGS
  117. Codec ID/Info                            : Picture based subtitle format used on BDs/HD-DVDs
  118. Duration                                 : 1 h 37 min
  119. Bit rate                                 : 30.1 kb/s
  120. Count of elements                        : 1762
  121. Stream size                              : 20.9 MiB (0%)
  122. Title                                    : English SDH PGS
  123. Language                                 : English
  124. Default                                  : No
  125. Forced                                   : No
  126. Menu
  127. 00:00:00.000                             : Chapter 01
  128. 00:12:59.612                             : Chapter 02
  129. 00:23:06.468                             : Chapter 03
  130. 00:32:41.293                             : Chapter 04
  131. 00:47:11.829                             : Chapter 05
  132. 00:55:49.763                             : Chapter 06
  133. 01:07:38.054                             : Chapter 07
  134. 01:12:22.380                             : Chapter 08
  135. 01:21:39.770                             : Chapter 09
  136. 01:25:13.317                             : Chapter 10
复制代码







                                       
                                       

                                       
                                       
                                       




回复

使用道具 举报

蓝光币
24
发表于 2021-11-2 13:52:14 | 显示全部楼层

楼主太厉害了!楼主,电影应该很好看我觉得蓝光电影网真是个好地方!
回复 支持 反对

使用道具 举报

懒得打字嘛,点击右侧快捷回复 【右侧内容,后台自定义】
您需要登录后才可以回帖 登录 | 立即加入

本版积分规则

Archiver|小黑屋| 蓝光电影网 |网站地图

Copyright © 2021 Comsenz Inc. Powered by 蓝光电影网

蓝光电影网

本站内容由用户自主分享和转载自互联网,转载目的在于传递更多信息,并不代表本网赞同其观点和对其真实性负责。

如有侵权、违反国家法律政策行为,请联系我们,我们会第一时间及时清除和处理!

举报反馈邮箱:[email protected]

快速回复 返回顶部 返回列表