找回密码

蓝光电影网

查看: 268|回复: 1

[剧情] 撒旦之外 Outside.Satan.2011.FRENCH.1080p.BluRay.x264.DD5.1-EA 14.70GB

[复制链接]
蓝光币
733
发表于 2021-10-29 11:32:33 | 显示全部楼层 |阅读模式


◎译  名 撒旦之外/Exo Satana/L'empire/Outside Satan/帝国/魔非魔(港)
◎片  名 Hors Satan
◎年  代 2011
◎产  地 法国
◎类  别 剧情
◎语  言 法语
◎上映日期 2011-10-19
◎豆瓣评分 7.1/10 from 460 users
◎豆瓣链接 https://movie.douban.com/subject/5151093/
◎片  长 110分钟
◎导  演 布鲁诺·杜蒙 Bruno Dumont
◎编  剧 布鲁诺·杜蒙 Bruno Dumont
◎主  演 奥罗拉·布鲁坦 Aurore Broutin
       大卫德瓦厄 David Dewaele
       Alexandra Lematre Alexandra Lematre
◎标  签 法国 | 布鲁诺·杜蒙 | 2011 | 法国电影 | BrunoDumont | 剧情 | Bruno_Dumont | 2010s
◎简  介


  在法国加莱海岸的沿线,有一个小小的村子。这个村落里没有几多人家居住。小河和沼泽遍及在村落当中,使得这里看上去像一个世外桃源。村落里住着一个怪人,他一小我生活,一小我照顾自己、一小我祈祷。
  
  当地一家农户的女儿前来照顾他的生活,给他食品。并和他在村落外的树林里生活了一段时候。可是他们不晓得的是,就在他们享用生活的同时,“撒旦“也静静起头在他们四周盘桓。一个汉子和这个姑娘纠缠不清,这个怪人就把他杀了;一个护林员在树林里巡查的时辰,又被这个怪人毫无征象地打了个半死。随着他的这类希奇的行为越来越多,人们不由起头对他的身份发生了猎奇,他究竟是什么人呢?
◎获奖情况
  第64届戛纳电影节 ?(2011)
  一种关注单元一种关注大奖(提名) 布鲁诺·杜蒙
  1. Video
  2. ID                                       : 1
  3. Format                                   : AVC
  4. Format/Info                              : Advanced Video Codec
  5. Format profile                           : [email protected]
  6. Format settings                          : CABAC / 5 Ref Frames
  7. Format settings, CABAC                   : Yes
  8. Format settings, Reference frames        : 5 frames
  9. Codec ID                                 : V_MPEG4/ISO/AVC
  10. Duration                                 : 1 h 49 min
  11. Bit rate                                 : 18.5 Mb/s
  12. Width                                    : 1 920 pixels
  13. Height                                   : 820 pixels
  14. Display aspect ratio                     : 2.35:1
  15. Frame rate mode                          : Constant
  16. Frame rate                               : 23.976 (24000/1001/189150) FPS
  17. Color space                              : YUV
  18. Chroma subsampling                       : 4:2:0
  19. Bit depth                                : 8 bits
  20. Scan type                                : Progressive
  21. Bits/(Pixel*Frame)                       : 0.491
  22. Stream size                              : 14.2 GiB (97%)
  23. Title                                    : -EA
  24. Writing library                          : x264 core 144 r0+2574 9abcd72 t_mod_Custom [[email protected] X86_64]
  25. Encoding settings                        : cabac=1 / ref=5 / deblock=1:-3:-3 / analyse=0x3:0x113 / me=umh / subme=10 / psy=1 / fade_compensate=0.00 / psy_rd=1.10:0.00 / mixed_ref=1 / me_range=32 / chroma_me=1 / trellis=2 / 8x8dct=1 / cqm=0 / deadzone=21,11 / fast_pskip=0 / chroma_qp_offset=-2 / threads=12 / lookahead_threads=2 / sliced_threads=0 / nr=0 / decimate=0 / interlaced=0 / bluray_compat=0 / constrained_intra=0 / fgo=0 / bframes=9 / b_pyramid=2 / b_adapt=2 / b_bias=0 / direct=3 / weightb=1 / open_gop=0 / weightp=2 / keyint=240 / keyint_min=23 / scenecut=40 / intra_refresh=0 / rc_lookahead=50 / rc=crf / mbtree=0 / crf=18.4000 / qcomp=0.75 / qpmin=0:0:0 / qpmax=69:69:69 / qpstep=4 / vbv_maxrate=62500 / vbv_bufsize=78125 / crf_max=0.0 / nal_hrd=none / filler=0 / ip_ratio=1.20 / pb_ratio=1.10 / aq=1:0.70 / aq-sensitivity=10.00 / aq-factor=1.00:1.00:1.00 / aq2=1:0.50 / aq2-sensitivity=15.00 / aq2-factor=1.00:1.00:1.00 / aq3=0
  26. Language                                 : French
  27. Default                                  : Yes
  28. Forced                                   : No
  29. Color range                              : Limited
  30. Color primaries                          : BT.709
  31. Transfer characteristics                 : BT.709
  32. Matrix coefficients                      : BT.709
  33. Audio
  34. ID                                       : 2
  35. Format                                   : AC-3
  36. Format/Info                              : Audio Coding 3
  37. Commercial name                          : Dolby Digital
  38. Codec ID                                 : A_AC3
  39. Duration                                 : 1 h 49 min
  40. Bit rate mode                            : Constant
  41. Bit rate                                 : 640 kb/s
  42. Channel(s)                               : 6 channels
  43. Channel layout                           : L R C LFE Ls Rs
  44. Sampling rate                            : 48.0 kHz
  45. Frame rate                               : 31.250 FPS (1536 SPF)
  46. Compression mode                         : Lossy
  47. Stream size                              : 502 MiB (3%)
  48. Language                                 : French
  49. Service kind                             : Complete Main
  50. Default                                  : Yes
  51. Forced                                   : No
  52. Text #1
  53. ID                                       : 3
  54. Format                                   : UTF-8
  55. Codec ID                                 : S_TEXT/UTF8
  56. Codec ID/Info                            : UTF-8 Plain Text
  57. Duration                                 : 1 h 46 min
  58. Bit rate                                 : 5 b/s
  59. Count of elements                        : 203
  60. Stream size                              : 4.67 KiB (0%)
  61. Title                                    : srt (from New Wave Films/UK PAL DVD)
  62. Language                                 : English
  63. Default                                  : Yes
  64. Forced                                   : Yes
  65. Text #2
  66. ID                                       : 4
  67. Format                                   : PGS
  68. Muxing mode                              : zlib
  69. Codec ID                                 : S_HDMV/PGS
  70. Codec ID/Info                            : Picture based subtitle format used on BDs/HD-DVDs
  71. Duration                                 : 1 h 49 min
  72. Bit rate                                 : 1 455 b/s
  73. Count of elements                        : 745
  74. Stream size                              : 1.14 MiB (0%)
  75. Title                                    : sup
  76. Language                                 : French
  77. Default                                  : No
  78. Forced                                   : No
复制代码







                                       
                                       

                                       
                                       
                                       




回复

使用道具 举报

蓝光币
0
发表于 2021-10-30 17:13:38 | 显示全部楼层

既然你诚信诚意的推荐了,那我就勉为其难的看看吧!蓝光电影网不走平凡路。
回复 支持 反对

使用道具 举报

懒得打字嘛,点击右侧快捷回复 【右侧内容,后台自定义】
您需要登录后才可以回帖 登录 | 立即加入

本版积分规则

Archiver|小黑屋| 蓝光电影网 |网站地图

Copyright © 2021 Comsenz Inc. Powered by 蓝光电影网

蓝光电影网

本站内容由用户自主分享和转载自互联网,转载目的在于传递更多信息,并不代表本网赞同其观点和对其真实性负责。

如有侵权、违反国家法律政策行为,请联系我们,我们会第一时间及时清除和处理!

举报反馈邮箱:[email protected]

快速回复 返回顶部 返回列表