找回密码

蓝光电影网

查看: 276|回复: 0

[其他] 江湖游侠传 Adventures.of.Captain.Fabian.1951.1080p.BluRay.x264.FLAC.2.0-HANDJOB 8.28GB

[复制链接]
蓝光币
733
发表于 2021-10-29 11:42:06 | 显示全部楼层 |阅读模式


◎译  名 江湖游侠传
◎片  名 Adventures of Captain Fabian
◎年  代 1951
◎产  地 美国,法国
◎类  别 冒险
◎语  言 英语
◎上映日期 1951
◎豆瓣评分 /10 from 0 users
◎豆瓣链接 https://movie.douban.com/subject/5065920/
◎片  长 100 分钟
◎导  演 罗伯特·弗洛里 Robert Florey / 威廉·马歇尔 William Marshall
◎编  剧 埃罗尔·弗林 Errol Flynn / Robert T. Shannon Robert T. Shannon
◎主  演 埃罗尔·弗林 Errol Flynn
       米切林内·普雷斯利 Micheline Presle
       文森特·普莱斯 Vincent Price
       阿格妮丝·摩尔海德 Agnes Moorehead
       维克托·弗兰森 Victor Francen
       马塞尔·乔内 Marcel Journet
       埃莱娜·芒松 Héléna Manson
       霍华德·沃侬 Howard Vernon
       雷吉·纳尔德 Reggie Nalder
       吉姆·热拉尔德 Jim Gérald
       Charles Fawcett Charles Fawcett
       Georges Flateau Georges Flateau
       罗热·布兰 Roger Blin
       Gilles Quéant Gilles Quéant
◎标  签 被轻忽的电影 | 美国电影 | 文森特·普莱斯 | 剧情
◎简  介


  暂无相关剧情先容
  1. Video
  2. ID                                       : 1
  3. Format                                   : AVC
  4. Format/Info                              : Advanced Video Codec
  5. Format profile                           : [email protected]
  6. Format settings                          : CABAC / 5 Ref Frames
  7. Format settings, CABAC                   : Yes
  8. Format settings, Reference frames        : 5 frames
  9. Codec ID                                 : V_MPEG4/ISO/AVC
  10. Duration                                 : 1 h 40 min
  11. Bit rate                                 : 11.6 Mb/s
  12. Width                                    : 1 476 pixels
  13. Height                                   : 1 080 pixels
  14. Display aspect ratio                     : 4:3
  15. Frame rate mode                          : Constant
  16. Frame rate                               : 23.976 (24000/1001/189150) FPS
  17. Color space                              : YUV
  18. Chroma subsampling                       : 4:2:0
  19. Bit depth                                : 8 bits
  20. Scan type                                : Progressive
  21. Bits/(Pixel*Frame)                       : 0.302
  22. Stream size                              : 8.08 GiB (98%)
  23. Writing library                          : x264 core 157 r2935 545de2f
  24. Encoding settings                        : cabac=1 / ref=5 / deblock=1:-3:-3 / analyse=0x3:0x133 / me=umh / subme=10 / psy=1 / psy_rd=1.00:0.00 / mixed_ref=1 / me_range=32 / chroma_me=1 / trellis=2 / 8x8dct=1 / cqm=0 / deadzone=21,11 / fast_pskip=0 / chroma_qp_offset=-2 / threads=34 / lookahead_threads=8 / sliced_threads=0 / nr=0 / decimate=0 / interlaced=0 / bluray_compat=0 / constrained_intra=0 / bframes=16 / b_pyramid=2 / b_adapt=2 / b_bias=0 / direct=3 / weightb=1 / open_gop=0 / weightp=2 / keyint=240 / keyint_min=24 / scenecut=40 / intra_refresh=0 / rc_lookahead=60 / rc=crf / mbtree=0 / crf=19.2 / qcomp=0.65 / qpmin=0 / qpmax=69 / qpstep=4 / vbv_maxrate=62500 / vbv_bufsize=78125 / crf_max=0.0 / nal_hrd=none / filler=0 / ip_ratio=1.40 / pb_ratio=1.30 / aq=2:0.80
  25. Default                                  : Yes
  26. Forced                                   : No
  27. Color range                              : Limited
  28. Color primaries                          : BT.709
  29. Transfer characteristics                 : BT.709
  30. Matrix coefficients                      : BT.709
  31. Audio
  32. ID                                       : 2
  33. Format                                   : FLAC
  34. Format/Info                              : Free Lossless Audio Codec
  35. Codec ID                                 : A_FLAC
  36. Duration                                 : 1 h 40 min
  37. Bit rate mode                            : Variable
  38. Bit rate                                 : 292 kb/s
  39. Channel(s)                               : 2 channels
  40. Channel layout                           : L R
  41. Sampling rate                            : 48.0 kHz
  42. Frame rate                               : 11.719 FPS (4096 SPF)
  43. Bit depth                                : 16 bits
  44. Compression mode                         : Lossless
  45. Stream size                              : 209 MiB (2%)
  46. Writing library                          : libFLAC 1.2.1 (UTC 2007-09-17)
  47. Language                                 : English
  48. Default                                  : Yes
  49. Forced                                   : No
  50. Menu
  51. 00:00:00.000                             : :Chapter 1
  52. 00:07:26.529                             : :Chapter 2
  53. 00:18:51.547                             : :Chapter 3
  54. 00:31:19.419                             : :Chapter 4
  55. 00:44:40.511                             : :Chapter 5
  56. 00:58:31.174                             : :Chapter 6
  57. 01:11:16.063                             : :Chapter 7
  58. 01:26:01.907                             : :Chapter 8
复制代码







                                       
                                       

                                       
                                       
                                       




回复

使用道具 举报

懒得打字嘛,点击右侧快捷回复 【右侧内容,后台自定义】
您需要登录后才可以回帖 登录 | 立即加入

本版积分规则

Archiver|小黑屋| 蓝光电影网 |网站地图

Copyright © 2021 Comsenz Inc. Powered by 蓝光电影网

蓝光电影网

本站内容由用户自主分享和转载自互联网,转载目的在于传递更多信息,并不代表本网赞同其观点和对其真实性负责。

如有侵权、违反国家法律政策行为,请联系我们,我们会第一时间及时清除和处理!

举报反馈邮箱:[email protected]

快速回复 返回顶部 返回列表