找回密码

蓝光电影网

查看: 444|回复: 1

[剧情] 我遇到一个女孩 I.Met.a.Girl.2020.720p.BluRay.x264-KNiVES 2.32GB

[复制链接]
蓝光币
733
发表于 2021-10-29 14:52:50 | 显示全部楼层 |阅读模式
[img][/img]

◎译  名 我碰到一个女孩
◎片  名 I Met a Girl
◎年  代 2020
◎产  地 澳大利亚
◎类  别 剧情 / 恋爱
◎语  言 英语
◎上映日期 2020-09-11(澳大利亚)
◎豆瓣评分 /10 from 0 users
◎豆瓣链接 https://movie.douban.com/subject/30438950/
◎主  演 布伦顿·思韦茨 Brenton Thwaites
       莉莉·沙利文 Lily Sullivan
       乔尔·杰克逊 Joel Jackson
       利亚姆·格雷厄姆 Liam Graham
       安妮塔·海格 Anita Hegh
       Dan Paris Dan Paris
       Amy Mathews Amy Mathews
       伊内兹·库洛 Inez Curr?
◎标  签 布伦顿·思韦茨 | 笑剧 | 澳大利亚 | 剧情 | 电影 | 美剧 | 音 | 2020
◎简  介


  布兰登·思怀兹(《泰坦》《加勒比海盗5》)和莉莉·沙利文(《绝壁上的野餐》)将主演笑剧剧情片《我碰到一个女孩》(I Met A Girl),最新已经开拍。思怀兹饰一个得了精神割裂症的年轻音乐家,爱上了沙利文饰演的奥秘女孩,她一向在他脑海里挥之不去。当她忽然消失,音乐家果断穿越全部澳大利亚,想找回女孩。而他的哥哥(乔尔·杰克逊饰演)想要救回弟弟。网剧《High Life》导演Luke Eve执导,Zahra Newman和Peter Rowsthorn等也出演,在西澳大利亚和新南威尔士州拍摄。
  1. Video
  2. ID                                       : 1
  3. Format                                   : AVC
  4. Format/Info                              : Advanced Video Codec
  5. Format profile                           : [email protected]
  6. Format settings                          : CABAC / 8 Ref Frames
  7. Format settings, CABAC                   : Yes
  8. Format settings, Reference frames        : 8 frames
  9. Codec ID                                 : V_MPEG4/ISO/AVC
  10. Duration                                 : 1 h 48 min
  11. Bit rate                                 : 2 387 kb/s
  12. Width                                    : 1 280 pixels
  13. Height                                   : 536 pixels
  14. Display aspect ratio                     : 2.40:1
  15. Frame rate mode                          : Constant
  16. Frame rate                               : 23.976 (24000/1001/189150) FPS
  17. Color space                              : YUV
  18. Chroma subsampling                       : 4:2:0
  19. Bit depth                                : 8 bits
  20. Scan type                                : Progressive
  21. Bits/(Pixel*Frame)                       : 0.145
  22. Stream size                              : 1.81 GiB (78%)
  23. Writing library                          : x264 core 164 r3075 66a5bc1
  24. Encoding settings                        : cabac=1 / ref=8 / deblock=1:-3:-3 / analyse=0x3:0x133 / me=umh / subme=9 / psy=1 / psy_rd=1.00:0.00 / mixed_ref=1 / me_range=16 / chroma_me=1 / trellis=2 / 8x8dct=1 / cqm=0 / deadzone=21,11 / fast_pskip=0 / chroma_qp_offset=-2 / threads=17 / lookahead_threads=1 / sliced_threads=0 / nr=0 / decimate=1 / interlaced=0 / bluray_compat=0 / constrained_intra=0 / bframes=3 / b_pyramid=2 / b_adapt=2 / b_bias=0 / direct=3 / weightb=1 / open_gop=0 / weightp=2 / keyint=250 / keyint_min=23 / scenecut=40 / intra_refresh=0 / rc_lookahead=60 / rc=crf / mbtree=1 / crf=17.0 / qcomp=0.60 / qpmin=0 / qpmax=69 / qpstep=4 / ip_ratio=1.40 / aq=1:1.00
  25. Language                                 : English
  26. Default                                  : Yes
  27. Forced                                   : No
  28. Audio
  29. ID                                       : 2
  30. Format                                   : AC-3
  31. Format/Info                              : Audio Coding 3
  32. Commercial name                          : Dolby Digital
  33. Codec ID                                 : A_AC3
  34. Duration                                 : 1 h 48 min
  35. Bit rate mode                            : Constant
  36. Bit rate                                 : 640 kb/s
  37. Channel(s)                               : 6 channels
  38. Channel layout                           : L R C LFE Ls Rs
  39. Sampling rate                            : 48.0 kHz
  40. Frame rate                               : 31.250 FPS (1536 SPF)
  41. Compression mode                         : Lossy
  42. Stream size                              : 496 MiB (21%)
  43. Language                                 : English
  44. Service kind                             : Complete Main
  45. Default                                  : Yes
  46. Forced                                   : No
  47. Text #1
  48. ID                                       : 3
  49. Format                                   : PGS
  50. Muxing mode                              : zlib
  51. Codec ID                                 : S_HDMV/PGS
  52. Codec ID/Info                            : Picture based subtitle format used on BDs/HD-DVDs
  53. Duration                                 : 1 h 42 min
  54. Bit rate                                 : 36.4 kb/s
  55. Count of elements                        : 2324
  56. Stream size                              : 26.7 MiB (1%)
  57. Language                                 : German
  58. Default                                  : No
  59. Forced                                   : No
  60. Text #2
  61. ID                                       : 4
  62. Format                                   : PGS
  63. Muxing mode                              : zlib
  64. Codec ID                                 : S_HDMV/PGS
  65. Codec ID/Info                            : Picture based subtitle format used on BDs/HD-DVDs
  66. Duration                                 : 1 h 47 min
  67. Bit rate                                 : 21.6 kb/s
  68. Count of elements                        : 1944
  69. Stream size                              : 16.6 MiB (1%)
  70. Language                                 : Polish
  71. Default                                  : No
  72. Forced                                   : No
  73. Text #3
  74. ID                                       : 5
  75. Format                                   : PGS
  76. Muxing mode                              : zlib
  77. Codec ID                                 : S_HDMV/PGS
  78. Codec ID/Info                            : Picture based subtitle format used on BDs/HD-DVDs
  79. Duration                                 : 1 h 21 min
  80. Bit rate                                 : 2 451 b/s
  81. Count of elements                        : 132
  82. Stream size                              : 1.43 MiB (0%)
  83. Language                                 : German
  84. Default                                  : No
  85. Forced                                   : No
  86. Text #4
  87. ID                                       : 6
  88. Format                                   : PGS
  89. Muxing mode                              : zlib
  90. Codec ID                                 : S_HDMV/PGS
  91. Codec ID/Info                            : Picture based subtitle format used on BDs/HD-DVDs
  92. Duration                                 : 1 h 45 min
  93. Bit rate                                 : 1 092 b/s
  94. Count of elements                        : 98
  95. Stream size                              : 846 KiB (0%)
  96. Language                                 : Polish
  97. Default                                  : No
  98. Forced                                   : No
  99. Menu
  100. 00:00:00.000                             : en:Chapter 01
  101. 00:08:44.357                             : en:Chapter 02
  102. 00:15:05.780                             : en:Chapter 03
  103. 00:24:08.280                             : en:Chapter 04
  104. 00:35:44.934                             : en:Chapter 05
  105. 00:45:17.340                             : en:Chapter 06
  106. 00:55:32.496                             : en:Chapter 07
  107. 01:06:17.557                             : en:Chapter 08
  108. 01:17:03.536                             : en:Chapter 09
  109. 01:24:33.402                             : en:Chapter 10
  110. 01:33:02.869                             : en:Chapter 11
  111. 01:40:50.211                             : en:Chapter 12
复制代码




                                       
                                       

                                       
                                       
                                       




回复

使用道具 举报

蓝光币
186
发表于 2021-10-29 16:42:37 | 显示全部楼层
楼主发贴辛苦了,谢谢楼主分享!我觉得蓝光电影网是注册对了!
回复 支持 反对

使用道具 举报

懒得打字嘛,点击右侧快捷回复 【右侧内容,后台自定义】
您需要登录后才可以回帖 登录 | 立即加入

本版积分规则

Archiver|小黑屋| 蓝光电影网 |网站地图

Copyright © 2021 Comsenz Inc. Powered by 蓝光电影网

蓝光电影网

本站内容由用户自主分享和转载自互联网,转载目的在于传递更多信息,并不代表本网赞同其观点和对其真实性负责。

如有侵权、违反国家法律政策行为,请联系我们,我们会第一时间及时清除和处理!

举报反馈邮箱:[email protected]

快速回复 返回顶部 返回列表