找回密码

蓝光电影网

查看: 384|回复: 1

[剧情] 凝视猎物 Looks.That.Kill.2020.720p.BluRay.x264-RUSTED 2.69GB

[复制链接]
蓝光币
733
发表于 2021-10-29 14:44:18 | 显示全部楼层 |阅读模式
[img][/img]

◎译  名 注视猎物
◎片  名 Looks That Kill
◎年  代 2020
◎产  地 美国
◎类  别 剧情
◎语  言 英语
◎上映日期 2020-06-19(美国)
◎豆瓣评分 5.8/10 from 1044 users
◎豆瓣链接 https://movie.douban.com/subject/30257841/
◎片  长 92分钟
◎导  演 凯伦·摩尔 Kellen Moore
◎编  剧 凯伦·摩尔 Kellen Moore
◎主  演 布兰登·弗林 Brandon Flynn
       汤姆·普罗克特 Tom Proctor
       安妮·玛莫罗 Annie Mumolo
       彼得·斯科拉里 Peter Scolari
       李起弘 Ki Hong Lee
       乔恩·彼得森 Jon Peterson
       茱莉亚·古丹妮·泰勒斯 Julia Goldani Telles
       安东尼·特拉伊纳 Anthony Traina
       普里西拉·洛佩兹 Priscilla Lopez
       丽兹·卡梅隆 Liz Cameron
◎标  签 剧情 | 美国 | 青春 | 2020 | 美国电影 | 电影 | 网飞 | 布兰登·弗林
◎简  介


  报告16岁男孩Max Richards被迫与一位致命、有魅力的杀手生活在一路。
  1. Video
  2. ID                                       : 1
  3. Format                                   : AVC
  4. Format/Info                              : Advanced Video Codec
  5. Format profile                           : [email protected]
  6. Format settings                          : CABAC / 8 Ref Frames
  7. Format settings, CABAC                   : Yes
  8. Format settings, Reference frames        : 8 frames
  9. Codec ID                                 : V_MPEG4/ISO/AVC
  10. Duration                                 : 1 h 28 min
  11. Bit rate                                 : 3 696 kb/s
  12. Width                                    : 1 280 pixels
  13. Height                                   : 538 pixels
  14. Display aspect ratio                     : 2.40:1
  15. Frame rate mode                          : Constant
  16. Frame rate                               : 25.000 FPS
  17. Color space                              : YUV
  18. Chroma subsampling                       : 4:2:0
  19. Bit depth                                : 8 bits
  20. Scan type                                : Progressive
  21. Bits/(Pixel*Frame)                       : 0.215
  22. Stream size                              : 2.29 GiB (85%)
  23. Writing library                          : x264 core 164 r3075 66a5bc1
  24. Encoding settings                        : cabac=1 / ref=8 / deblock=1:1:1 / analyse=0x3:0x133 / me=umh / subme=9 / psy=1 / psy_rd=0.70:0.00 / mixed_ref=1 / me_range=16 / chroma_me=1 / trellis=2 / 8x8dct=1 / cqm=0 / deadzone=21,11 / fast_pskip=0 / chroma_qp_offset=-2 / threads=24 / lookahead_threads=2 / sliced_threads=0 / nr=0 / decimate=0 / interlaced=0 / bluray_compat=0 / constrained_intra=0 / bframes=3 / b_pyramid=2 / b_adapt=2 / b_bias=0 / direct=3 / weightb=1 / open_gop=0 / weightp=2 / keyint=250 / keyint_min=25 / scenecut=40 / intra_refresh=0 / rc=crf / mbtree=0 / crf=17.0 / qcomp=0.60 / qpmin=0 / qpmax=69 / qpstep=4 / ip_ratio=1.40 / pb_ratio=1.30 / aq=3:1.00
  25. Language                                 : English
  26. Default                                  : Yes
  27. Forced                                   : No
  28. Color range                              : Limited
  29. Matrix coefficients                      : BT.709

  30. Audio
  31. ID                                       : 2
  32. Format                                   : AC-3
  33. Format/Info                              : Audio Coding 3
  34. Commercial name                          : Dolby Digital
  35. Codec ID                                 : A_AC3
  36. Duration                                 : 1 h 28 min
  37. Bit rate mode                            : Constant
  38. Bit rate                                 : 640 kb/s
  39. Channel(s)                               : 6 channels
  40. Channel layout                           : L R C LFE Ls Rs
  41. Sampling rate                            : 48.0 kHz
  42. Frame rate                               : 31.250 FPS (1536 SPF)
  43. Compression mode                         : Lossy
  44. Stream size                              : 407 MiB (15%)
  45. Language                                 : English
  46. Service kind                             : Complete Main
  47. Default                                  : Yes
  48. Forced                                   : No

  49. Menu
  50. 00:00:00.000                             : en:Chapter 01
  51. 00:06:24.720                             : en:Chapter 02
  52. 00:13:55.440                             : en:Chapter 03
  53. 00:20:36.000                             : en:Chapter 04
  54. 00:27:15.040                             : en:Chapter 05
  55. 00:35:12.200                             : en:Chapter 06
  56. 00:42:34.560                             : en:Chapter 07
  57. 00:47:12.840                             : en:Chapter 08
  58. 00:54:09.280                             : en:Chapter 09
  59. 01:01:52.520                             : en:Chapter 10
  60. 01:10:23.240                             : en:Chapter 11
  61. 01:23:19.400                             : en:Chapter 12
复制代码




                                       
                                       

                                       
                                       
                                       




回复

使用道具 举报

蓝光币
26
发表于 2021-10-30 20:08:50 | 显示全部楼层

楼主太厉害了!楼主,电影应该很好看我觉得蓝光电影网真是个好地方!
回复 支持 反对

使用道具 举报

懒得打字嘛,点击右侧快捷回复 【右侧内容,后台自定义】
您需要登录后才可以回帖 登录 | 立即加入

本版积分规则

Archiver|小黑屋| 蓝光电影网 |网站地图

Copyright © 2021 Comsenz Inc. Powered by 蓝光电影网

蓝光电影网

本站内容由用户自主分享和转载自互联网,转载目的在于传递更多信息,并不代表本网赞同其观点和对其真实性负责。

如有侵权、违反国家法律政策行为,请联系我们,我们会第一时间及时清除和处理!

举报反馈邮箱:[email protected]

快速回复 返回顶部 返回列表