找回密码

蓝光电影网

查看: 596|回复: 3

[喜剧] 小丑电影版 Klown.2010.DANISH.1080p.BluRay.x264.DD5.1-HANDJOB 7.81GB

[复制链接]
蓝光币
733
发表于 2021-10-29 14:44:54 | 显示全部楼层 |阅读模式
[img][/img]

◎译  名 小丑电影版/Clown: The Movie/Klown
◎片  名 Klovn: The Movie
◎年  代 2010
◎产  地 丹麦
◎类  别 笑剧
◎语  言 丹麦语
◎上映日期 2010-12-16 / 2012-07-27(美国)
◎豆瓣评分 6.5/10 from 465 users
◎豆瓣链接 https://movie.douban.com/subject/5334376/
◎片  长 90分钟
◎编  剧 加斯帕·克里斯滕森 Casper Christensen
◎主  演 Frank Hvam Frank Hvam
       加斯帕·克里斯滕森 Casper Christensen
       Mia Lyhne Mia Lyhne
       艾本·叶尤 Iben Hjejle
       Lars Hjortsh?j Lars Hjortsh?j
       Elsebeth Steentoft Elsebeth Steentoft
       Michael Car?e Michael Car?e
◎标  签 丹麦 | 笑剧 | 丹麦电影 | 2010 | 小丑电影版 | 剧情 | 笑剧黑色 | 电影
◎简  介


  弗兰克一步踏错,致使妻子的哥哥摔下梯子,他不能不照顾侄儿博,并把他带去加入和洽兄弟卡斯伯计划好的飘流观光。
  
  观光中,弗兰克和卡斯伯被照顾小孩的重任压得喘不外气来,他们决议停止水上活动,转而去加入斯坎讷堡音乐节,在那边,有酷爽饮料和火辣美男。
  1. Video
  2. ID                                       : 1
  3. Format                                   : AVC
  4. Format/Info                              : Advanced Video Codec
  5. Format profile                           : [email protected]
  6. Format settings                          : CABAC / 4 Ref Frames
  7. Format settings, CABAC                   : Yes
  8. Format settings, Reference frames        : 4 frames
  9. Codec ID                                 : V_MPEG4/ISO/AVC
  10. Duration                                 : 1 h 29 min
  11. Bit rate                                 : 11.8 Mb/s
  12. Width                                    : 1 920 pixels
  13. Height                                   : 1 034 pixels
  14. Display aspect ratio                     : 1.85:1
  15. Frame rate mode                          : Constant
  16. Frame rate                               : 25.000 FPS
  17. Color space                              : YUV
  18. Chroma subsampling                       : 4:2:0
  19. Bit depth                                : 8 bits
  20. Scan type                                : Progressive
  21. Bits/(Pixel*Frame)                       : 0.237
  22. Stream size                              : 7.35 GiB (94%)
  23. Writing library                          : x264 core 157 r2935 545de2f
  24. Encoding settings                        : cabac=1 / ref=4 / deblock=1:-3:-3 / analyse=0x3:0x133 / me=umh / subme=10 / psy=1 / psy_rd=1.00:0.00 / mixed_ref=1 / me_range=32 / chroma_me=1 / trellis=2 / 8x8dct=1 / cqm=0 / deadzone=21,11 / fast_pskip=0 / chroma_qp_offset=-2 / threads=24 / lookahead_threads=6 / sliced_threads=0 / nr=0 / decimate=0 / interlaced=0 / bluray_compat=0 / constrained_intra=0 / bframes=16 / b_pyramid=2 / b_adapt=2 / b_bias=0 / direct=3 / weightb=1 / open_gop=0 / weightp=2 / keyint=250 / keyint_min=25 / scenecut=40 / intra_refresh=0 / rc_lookahead=60 / rc=crf / mbtree=0 / crf=18.8 / qcomp=0.60 / qpmin=0 / qpmax=69 / qpstep=4 / vbv_maxrate=62500 / vbv_bufsize=78125 / crf_max=0.0 / nal_hrd=none / filler=0 / ip_ratio=1.40 / pb_ratio=1.30 / aq=2:1.00
  25. Language                                 : English
  26. Default                                  : Yes
  27. Forced                                   : No
  28. Color range                              : Limited
  29. Color primaries                          : BT.709
  30. Transfer characteristics                 : BT.709
  31. Matrix coefficients                      : BT.709
  32. Audio #1
  33. ID                                       : 2
  34. Format                                   : AC-3
  35. Format/Info                              : Audio Coding 3
  36. Commercial name                          : Dolby Digital
  37. Codec ID                                 : A_AC3
  38. Duration                                 : 1 h 29 min
  39. Bit rate mode                            : Constant
  40. Bit rate                                 : 640 kb/s
  41. Channel(s)                               : 6 channels
  42. Channel layout                           : L R C LFE Ls Rs
  43. Sampling rate                            : 48.0 kHz
  44. Frame rate                               : 31.250 FPS (1536 SPF)
  45. Compression mode                         : Lossy
  46. Stream size                              : 410 MiB (5%)
  47. Language                                 : Danish
  48. Service kind                             : Complete Main
  49. Default                                  : Yes
  50. Forced                                   : No
  51. Audio #2
  52. ID                                       : 3
  53. Format                                   : AAC LC
  54. Format/Info                              : Advanced Audio Codec Low Complexity
  55. Codec ID                                 : A_AAC-2
  56. Duration                                 : 1 h 29 min
  57. Bit rate                                 : 87.6 kb/s
  58. Channel(s)                               : 2 channels
  59. Channel layout                           : L R
  60. Sampling rate                            : 48.0 kHz
  61. Frame rate                               : 46.875 FPS (1024 SPF)
  62. Compression mode                         : Lossy
  63. Stream size                              : 56.1 MiB (1%)
  64. Title                                    : Commentary with Director Mikkel N?rgaard, Actors Frank Hvam and Casper Christensen
  65. Language                                 : English
  66. Default                                  : No
  67. Forced                                   : No
  68. Text
  69. ID                                       : 4
  70. Format                                   : UTF-8
  71. Codec ID                                 : S_TEXT/UTF8
  72. Codec ID/Info                            : UTF-8 Plain Text
  73. Duration                                 : 1 h 26 min
  74. Bit rate                                 : 61 b/s
  75. Count of elements                        : 1029
  76. Stream size                              : 39.2 KiB (0%)
  77. Language                                 : English
  78. Default                                  : Yes
  79. Forced                                   : No
  80. Menu
  81. 00:00:00.000                             : :Chapter 1
  82. 00:07:07.280                             : :Chapter 2
  83. 00:15:44.160                             : :Chapter 3
  84. 00:23:05.000                             : :Chapter 4
  85. 00:31:04.360                             : :Chapter 5
  86. 00:38:03.080                             : :Chapter 6
  87. 00:45:55.200                             : :Chapter 7
  88. 00:54:40.360                             : :Chapter 8
  89. 01:02:03.800                             : :Chapter 9
  90. 01:09:28.360                             : :Chapter 10
  91. 01:15:33.840                             : :Chapter 11
  92. 01:22:17.280                             : :Chapter 12
复制代码




                                       
                                       

                                       
                                       
                                       




回复

使用道具 举报

蓝光币
91
发表于 2021-10-30 00:54:32 | 显示全部楼层
楼主发贴辛苦了,谢谢楼主分享!我觉得蓝光电影网是注册对了!
回复 支持 反对

使用道具 举报

蓝光币
282
发表于 2021-10-30 02:10:02 | 显示全部楼层
楼主发贴辛苦了,谢谢楼主分享!我觉得蓝光电影网是注册对了!
回复 支持 反对

使用道具 举报

蓝光币
80
发表于 2021-10-31 00:31:27 | 显示全部楼层

我看不错噢 谢谢楼主!蓝光电影网越来越好!
回复 支持 反对

使用道具 举报

懒得打字嘛,点击右侧快捷回复 【右侧内容,后台自定义】
您需要登录后才可以回帖 登录 | 立即加入

本版积分规则

Archiver|小黑屋| 蓝光电影网 |网站地图

Copyright © 2021 Comsenz Inc. Powered by 蓝光电影网

蓝光电影网

本站内容由用户自主分享和转载自互联网,转载目的在于传递更多信息,并不代表本网赞同其观点和对其真实性负责。

如有侵权、违反国家法律政策行为,请联系我们,我们会第一时间及时清除和处理!

举报反馈邮箱:[email protected]

快速回复 返回顶部 返回列表