找回密码

蓝光电影网

查看: 422|回复: 0

[剧情] 触礁/岩石上 On.the.Rocks.2020.720p.BluRay.x264-PiGNUS 3.76GB

[复制链接]
蓝光币
730
发表于 2021-10-29 18:13:47 | 显示全部楼层 |阅读模式


◎译  名 触礁/岩石上
◎片  名 On the Rocks
◎年  代 2020
◎产  地 美国
◎类  别 剧情 / 笑剧 / 冒险
◎语  言 英语
◎上映日期 2020-09-22(纽约电影节) / 2020-10-23(美国)
◎豆瓣评分 6.6/10 from 2765 users
◎豆瓣链接 https://movie.douban.com/subject/30432861/
◎片  长 97分钟
◎导  演 索菲亚·科波拉 Sofia Coppola
◎编  剧 索菲亚·科波拉 Sofia Coppola
◎主  演 比尔·默瑞 Bill Murray
       拉什达·琼斯 Rashida Jones
       马龙·韦恩斯 Marlon Wayans
       珍妮·斯蕾特 Jenny Slate
       杰西卡·亨维克 Jessica Henwick
       芭芭拉·贝恩 Barbara Bain
       纳迪雅·达珍妮 Nadia Dajani
       朱尔斯·威尔科克斯 Jules Willcox
       娜缇娅·蒂恩 Natia Dune
       桃乐丝·麦卡锡 Doris McCarthy
       南希·欧泽力 Nancy Ozelli
       Mike Keller Mike Keller
       华特鲁迪丝·巴克 Waltrudis Buck
       西蒙娜·拉马德里德 Ximena Lamadrid
◎标  签 美国 | 索菲亚·科波拉 | 2020 | 笑剧 | 剧情 | SofiaCoppola | BillMurray | 美国电影
◎简  介


  索菲亚·科波拉将执导新片《触礁》(On the Rocks),比尔·莫瑞、拉什达·琼斯主演,这将是苹果和A24合作的第一部电影,下月开拍。
  
  剧本由科波拉编写,报告一个年轻妈妈和她有豪杰色彩的父亲重新联系,在纽约展开一段冒险。
◎获奖情况
  第78届金球奖 ?(2021)
  电影类最好男配角(提名) 比尔·默瑞
  
  第71届美国剪辑工会奖 ?(2021)
  音乐/笑剧片最好剪辑(提名) 莎拉·弗拉克
  
  第26届美国批评家挑选电影奖 ?(2021)
  最好男配角(提名) 比尔·默瑞
  最好笑剧片(提名)
  
  第25届金卫星奖 ?(2021)
  电影部分最好笑剧/音乐片(提名)
  电影部分笑剧/音乐片最好女配角(提名) 拉什达·琼斯
  电影部分最好男配角(提名) 比尔·默瑞
  
  第33届芝加哥影评人协会奖 ?(2020)
  最好男配角(提名) 比尔·默瑞
  
  第24届美国在线影评人协会奖 ?(2021)
  最好男配角(提名) 比尔·默瑞
  1. Video
  2. ID                                       : 1
  3. Format                                   : AVC
  4. Format/Info                              : Advanced Video Codec
  5. Format profile                           : [email protected]
  6. Format settings                          : CABAC / 8 Ref Frames
  7. Format settings, CABAC                   : Yes
  8. Format settings, Reference frames        : 8 frames
  9. Codec ID                                 : V_MPEG4/ISO/AVC
  10. Duration                                 : 1 h 36 min
  11. Bit rate                                 : 4 882 kb/s
  12. Width                                    : 1 280 pixels
  13. Height                                   : 690 pixels
  14. Display aspect ratio                     : 1.85:1
  15. Frame rate mode                          : Constant
  16. Frame rate                               : 23.976 (24000/1001/189150) FPS
  17. Color space                              : YUV
  18. Chroma subsampling                       : 4:2:0
  19. Bit depth                                : 8 bits
  20. Scan type                                : Progressive
  21. Bits/(Pixel*Frame)                       : 0.231
  22. Stream size                              : 3.30 GiB (88%)
  23. Writing library                          : x264 core 164 r3075 66a5bc1
  24. Encoding settings                        : cabac=1 / ref=8 / deblock=1:-3:-3 / analyse=0x3:0x133 / me=umh / subme=9 / psy=1 / psy_rd=1.00:0.00 / mixed_ref=1 / me_range=16 / chroma_me=1 / trellis=2 / 8x8dct=1 / cqm=0 / deadzone=21,11 / fast_pskip=1 / chroma_qp_offset=-2 / threads=22 / lookahead_threads=1 / sliced_threads=0 / nr=0 / decimate=1 / interlaced=0 / bluray_compat=0 / constrained_intra=0 / bframes=3 / b_pyramid=2 / b_adapt=2 / b_bias=0 / direct=3 / weightb=1 / open_gop=0 / weightp=2 / keyint=250 / keyint_min=23 / scenecut=40 / intra_refresh=0 / rc_lookahead=60 / rc=crf / mbtree=1 / crf=16.0 / qcomp=0.60 / qpmin=0 / qpmax=69 / qpstep=4 / ip_ratio=1.40 / aq=1:1.00
  25. Default                                  : Yes
  26. Forced                                   : No

  27. Audio
  28. ID                                       : 2
  29. Format                                   : AC-3
  30. Format/Info                              : Audio Coding 3
  31. Commercial name                          : Dolby Digital
  32. Codec ID                                 : A_AC3
  33. Duration                                 : 1 h 36 min
  34. Bit rate mode                            : Constant
  35. Bit rate                                 : 640 kb/s
  36. Channel(s)                               : 6 channels
  37. Channel layout                           : L R C LFE Ls Rs
  38. Sampling rate                            : 48.0 kHz
  39. Frame rate                               : 31.250 FPS (1536 SPF)
  40. Compression mode                         : Lossy
  41. Stream size                              : 443 MiB (12%)
  42. Language                                 : English
  43. Service kind                             : Complete Main
  44. Default                                  : Yes
  45. Forced                                   : No

  46. Text #1
  47. ID                                       : 3
  48. Format                                   : PGS
  49. Muxing mode                              : zlib
  50. Codec ID                                 : S_HDMV/PGS
  51. Codec ID/Info                            : Picture based subtitle format used on BDs/HD-DVDs
  52. Duration                                 : 1 h 29 min
  53. Bit rate                                 : 48.3 kb/s
  54. Count of elements                        : 3176
  55. Stream size                              : 31.0 MiB (1%)
  56. Title                                    : English SDH
  57. Language                                 : English
  58. Default                                  : No
  59. Forced                                   : No

  60. Text #2
  61. ID                                       : 4
  62. Format                                   : PGS
  63. Muxing mode                              : zlib
  64. Codec ID                                 : S_HDMV/PGS
  65. Codec ID/Info                            : Picture based subtitle format used on BDs/HD-DVDs
  66. Duration                                 : 1 h 29 min
  67. Bit rate                                 : 35.8 kb/s
  68. Count of elements                        : 2748
  69. Stream size                              : 22.9 MiB (1%)
  70. Title                                    : Spanish
  71. Language                                 : Spanish
  72. Default                                  : No
  73. Forced                                   : No

  74. Menu
  75. 00:00:00.000                             : en:Chapter 01
  76. 00:05:39.631                             : en:Chapter 02
  77. 00:13:43.906                             : en:Chapter 03
  78. 00:18:19.348                             : en:Chapter 04
  79. 00:26:25.125                             : en:Chapter 05
  80. 00:31:55.622                             : en:Chapter 06
  81. 00:37:44.012                             : en:Chapter 07
  82. 00:43:19.013                             : en:Chapter 08
  83. 00:48:05.758                             : en:Chapter 09
  84. 00:56:44.610                             : en:Chapter 10
  85. 00:59:28.857                             : en:Chapter 11
  86. 01:04:44.297                             : en:Chapter 12
  87. 01:08:22.724                             : en:Chapter 13
  88. 01:14:19.538                             : en:Chapter 14
  89. 01:22:09.049                             : en:Chapter 15
  90. 01:27:49.097                             : en:Chapter 16
  91. 01:36:49.637                             : en:Chapter 17
复制代码





                                       
                                       

                                       
                                       
                                       




回复

使用道具 举报

懒得打字嘛,点击右侧快捷回复 【右侧内容,后台自定义】
您需要登录后才可以回帖 登录 | 立即加入

本版积分规则

Archiver|小黑屋| 蓝光电影网 |网站地图

Copyright © 2021 Comsenz Inc. Powered by 蓝光电影网

蓝光电影网

本站内容由用户自主分享和转载自互联网,转载目的在于传递更多信息,并不代表本网赞同其观点和对其真实性负责。

如有侵权、违反国家法律政策行为,请联系我们,我们会第一时间及时清除和处理!

举报反馈邮箱:[email protected]

快速回复 返回顶部 返回列表